  0
SECTION
  2
HEADER
  9
$ACADVER
  1
AC1015
  9
$ACADMAINTVER
 70
    20
  9
$DWGCODEPAGE
  3
ANSI_1252
  9
$INSBASE
 10
0.0
 20
0.0
 30
0.0
  9
$EXTMIN
 10
-26.1922855696922
 20
-56.72569471252074
 30
0.0
  9
$EXTMAX
 10
128.1216688999705
 20
27.27430528747928
 30
0.0
  9
$LIMMIN
 10
0.0
 20
0.0
  9
$LIMMAX
 10
12.0
 20
9.0
  9
$ORTHOMODE
 70
     0
  9
$REGENMODE
 70
     1
  9
$FILLMODE
 70
     1
  9
$QTEXTMODE
 70
     0
  9
$MIRRTEXT
 70
     0
  9
$LTSCALE
 40
1.0
  9
$ATTMODE
 70
     1
  9
$TEXTSIZE
 40
0.2
  9
$TRACEWID
 40
0.05
  9
$TEXTSTYLE
  7
Standard
  9
$CLAYER
  8
0
  9
$CELTYPE
  6
ByLayer
  9
$CECOLOR
 62
   256
  9
$CELTSCALE
 40
1.0
  9
$DISPSILH
 70
     0
  9
$DIMSCALE
 40
10.0
  9
$DIMASZ
 40
0.18
  9
$DIMEXO
 40
0.0625
  9
$DIMDLI
 40
0.38
  9
$DIMRND
 40
0.0
  9
$DIMDLE
 40
0.0
  9
$DIMEXE
 40
0.18
  9
$DIMTP
 40
0.0
  9
$DIMTM
 40
0.0
  9
$DIMTXT
 40
0.18
  9
$DIMCEN
 40
0.09
  9
$DIMTSZ
 40
0.0
  9
$DIMTOL
 70
     0
  9
$DIMLIM
 70
     0
  9
$DIMTIH
 70
     1
  9
$DIMTOH
 70
     1
  9
$DIMSE1
 70
     0
  9
$DIMSE2
 70
     0
  9
$DIMTAD
 70
     0
  9
$DIMZIN
 70
     8
  9
$DIMBLK
  1

  9
$DIMASO
 70
     1
  9
$DIMSHO
 70
     1
  9
$DIMPOST
  1
"
  9
$DIMAPOST
  1

  9
$DIMALT
 70
     0
  9
$DIMALTD
 70
     2
  9
$DIMALTF
 40
25.4
  9
$DIMLFAC
 40
1.0
  9
$DIMTOFL
 70
     0
  9
$DIMTVP
 40
0.0
  9
$DIMTIX
 70
     0
  9
$DIMSOXD
 70
     0
  9
$DIMSAH
 70
     0
  9
$DIMBLK1
  1

  9
$DIMBLK2
  1

  9
$DIMSTYLE
  2
Standard
  9
$DIMCLRD
 70
     0
  9
$DIMCLRE
 70
     0
  9
$DIMCLRT
 70
     0
  9
$DIMTFAC
 40
1.0
  9
$DIMGAP
 40
0.09
  9
$DIMJUST
 70
     0
  9
$DIMSD1
 70
     0
  9
$DIMSD2
 70
     0
  9
$DIMTOLJ
 70
     1
  9
$DIMTZIN
 70
     0
  9
$DIMALTZ
 70
     0
  9
$DIMALTTZ
 70
     0
  9
$DIMUPT
 70
     0
  9
$DIMDEC
 70
     6
  9
$DIMTDEC
 70
     6
  9
$DIMALTU
 70
     2
  9
$DIMALTTD
 70
     2
  9
$DIMTXSTY
  7
Standard
  9
$DIMAUNIT
 70
     0
  9
$DIMADEC
 70
     0
  9
$DIMALTRND
 40
0.0
  9
$DIMAZIN
 70
     0
  9
$DIMDSEP
 70
    46
  9
$DIMATFIT
 70
     3
  9
$DIMFRAC
 70
     0
  9
$DIMLDRBLK
  1

  9
$DIMLUNIT
 70
     5
  9
$DIMLWD
 70
    -2
  9
$DIMLWE
 70
    -2
  9
$DIMTMOVE
 70
     0
  9
$LUNITS
 70
     2
  9
$LUPREC
 70
     4
  9
$SKETCHINC
 40
0.1
  9
$FILLETRAD
 40
2.25
  9
$AUNITS
 70
     0
  9
$AUPREC
 70
     0
  9
$MENU
  1
.
  9
$ELEVATION
 40
0.0
  9
$PELEVATION
 40
0.0
  9
$THICKNESS
 40
0.0
  9
$LIMCHECK
 70
     0
  9
$CHAMFERA
 40
0.0
  9
$CHAMFERB
 40
0.0
  9
$CHAMFERC
 40
0.0
  9
$CHAMFERD
 40
0.0
  9
$SKPOLY
 70
     0
  9
$TDCREATE
 40
2454288.568279653
  9
$TDUCREATE
 40
2454288.734946319
  9
$TDUPDATE
 40
2454288.576260752
  9
$TDUUPDATE
 40
2454288.742927419
  9
$TDINDWG
 40
0.0002871759
  9
$TDUSRTIMER
 40
0.0002871759
  9
$USRTIMER
 70
     1
  9
$ANGBASE
 50
0.0
  9
$ANGDIR
 70
     0
  9
$PDMODE
 70
     0
  9
$PDSIZE
 40
0.0
  9
$PLINEWID
 40
0.0
  9
$SPLFRAME
 70
     0
  9
$SPLINETYPE
 70
     6
  9
$SPLINESEGS
 70
     8
  9
$HANDSEED
  5
605
  9
$SURFTAB1
 70
     6
  9
$SURFTAB2
 70
     6
  9
$SURFTYPE
 70
     6
  9
$SURFU
 70
     6
  9
$SURFV
 70
     6
  9
$UCSBASE
  2

  9
$UCSNAME
  2

  9
$UCSORG
 10
0.0
 20
0.0
 30
0.0
  9
$UCSXDIR
 10
1.0
 20
0.0
 30
0.0
  9
$UCSYDIR
 10
0.0
 20
1.0
 30
0.0
  9
$UCSORTHOREF
  2

  9
$UCSORTHOVIEW
 70
     0
  9
$UCSORGTOP
 10
0.0
 20
0.0
 30
0.0
  9
$UCSORGBOTTOM
 10
0.0
 20
0.0
 30
0.0
  9
$UCSORGLEFT
 10
0.0
 20
0.0
 30
0.0
  9
$UCSORGRIGHT
 10
0.0
 20
0.0
 30
0.0
  9
$UCSORGFRONT
 10
0.0
 20
0.0
 30
0.0
  9
$UCSORGBACK
 10
0.0
 20
0.0
 30
0.0
  9
$PUCSBASE
  2

  9
$PUCSNAME
  2

  9
$PUCSORG
 10
0.0
 20
0.0
 30
0.0
  9
$PUCSXDIR
 10
1.0
 20
0.0
 30
0.0
  9
$PUCSYDIR
 10
0.0
 20
1.0
 30
0.0
  9
$PUCSORTHOREF
  2

  9
$PUCSORTHOVIEW
 70
     0
  9
$PUCSORGTOP
 10
0.0
 20
0.0
 30
0.0
  9
$PUCSORGBOTTOM
 10
0.0
 20
0.0
 30
0.0
  9
$PUCSORGLEFT
 10
0.0
 20
0.0
 30
0.0
  9
$PUCSORGRIGHT
 10
0.0
 20
0.0
 30
0.0
  9
$PUCSORGFRONT
 10
0.0
 20
0.0
 30
0.0
  9
$PUCSORGBACK
 10
0.0
 20
0.0
 30
0.0
  9
$USERI1
 70
     0
  9
$USERI2
 70
     0
  9
$USERI3
 70
     0
  9
$USERI4
 70
     0
  9
$USERI5
 70
     0
  9
$USERR1
 40
0.0
  9
$USERR2
 40
0.0
  9
$USERR3
 40
0.0
  9
$USERR4
 40
0.0
  9
$USERR5
 40
0.0
  9
$WORLDVIEW
 70
     1
  9
$SHADEDGE
 70
     3
  9
$SHADEDIF
 70
    70
  9
$TILEMODE
 70
     1
  9
$MAXACTVP
 70
    64
  9
$PINSBASE
 10
0.0
 20
0.0
 30
0.0
  9
$PLIMCHECK
 70
     0
  9
$PEXTMIN
 10
0.0
 20
0.0
 30
0.0
  9
$PEXTMAX
 10
0.0
 20
0.0
 30
0.0
  9
$PLIMMIN
 10
0.0
 20
0.0
  9
$PLIMMAX
 10
12.0
 20
9.0
  9
$UNITMODE
 70
     0
  9
$VISRETAIN
 70
     1
  9
$PLINEGEN
 70
     0
  9
$PSLTSCALE
 70
     1
  9
$TREEDEPTH
 70
  3020
  9
$CMLSTYLE
  2
Standard
  9
$CMLJUST
 70
     0
  9
$CMLSCALE
 40
1.0
  9
$PROXYGRAPHICS
 70
     1
  9
$MEASUREMENT
 70
     0
  9
$CELWEIGHT
370
    -1
  9
$ENDCAPS
280
     0
  9
$JOINSTYLE
280
     0
  9
$LWDISPLAY
290
     0
  9
$INSUNITS
 70
     1
  9
$HYPERLINKBASE
  1

  9
$STYLESHEET
  1

  9
$XEDIT
290
     1
  9
$CEPSNTYPE
380
     0
  9
$PSTYLEMODE
290
     1
  9
$FINGERPRINTGUID
  2
{34C8B580-0055-494F-964C-3FB5DF88457A}
  9
$VERSIONGUID
  2
{4A7AEAAD-44F7-4FB7-AEC4-A2E3DF11A5CB}
  9
$EXTNAMES
290
     1
  9
$PSVPSCALE
 40
0.0
  9
$OLESTARTUP
290
     0
  0
ENDSEC
  0
SECTION
  2
CLASSES
  0
CLASS
  1
ACDBDICTIONARYWDFLT
  2
AcDbDictionaryWithDefault
  3
ObjectDBX Classes
 90
        0
280
     0
281
     0
  0
CLASS
  1
ACDBPLACEHOLDER
  2
AcDbPlaceHolder
  3
ObjectDBX Classes
 90
        0
280
     0
281
     0
  0
CLASS
  1
LAYOUT
  2
AcDbLayout
  3
ObjectDBX Classes
 90
        0
280
     0
281
     0
  0
CLASS
  1
DICTIONARYVAR
  2
AcDbDictionaryVar
  3
ObjectDBX Classes
 90
        0
280
     0
281
     0
  0
CLASS
  1
TABLESTYLE
  2
AcDbTableStyle
  3
ObjectDBX Classes
 90
     2047
280
     0
281
     0
  0
CLASS
  1
DIMASSOC
  2
AcDbDimAssoc
  3
"AcDbDimAssoc|Product Desc:     AcDim ARX App For Dimension|Company:          Autodesk, Inc.|WEB Address:      www.autodesk.com"
 90
        0
280
     0
281
     0
  0
CLASS
  1
SORTENTSTABLE
  2
AcDbSortentsTable
  3
ObjectDBX Classes
 90
    32768
280
     0
281
     0
  0
ENDSEC
  0
SECTION
  2
TABLES
  0
TABLE
  2
VPORT
  5
8
330
0
100
AcDbSymbolTable
 70
     2
  0
VPORT
  5
5FD
330
8
100
AcDbSymbolTableRecord
100
AcDbViewportTableRecord
  2
*Active
 70
     0
 10
0.0
 20
0.0
 11
1.0
 21
1.0
 12
49.18306919921514
 22
-19.34600599876047
 13
0.0
 23
0.0
 14
0.5
 24
0.5
 15
0.5
 25
0.5
 16
0.0
 26
0.0
 36
1.0
 17
0.0
 27
0.0
 37
0.0
 40
124.3263223469623
 41
1.554677206851119
 42
50.0
 43
0.0
 44
0.0
 50
0.0
 51
0.0
 71
     0
 72
  1000
 73
     1
 74
     0
 75
     0
 76
     0
 77
     0
 78
     0
281
     0
 65
     1
110
0.0
120
0.0
130
0.0
111
1.0
121
0.0
131
0.0
112
0.0
122
1.0
132
0.0
 79
     0
146
0.0
  0
ENDTAB
  0
TABLE
  2
LTYPE
  5
5
330
0
100
AcDbSymbolTable
 70
     1
  0
LTYPE
  5
14
330
5
100
AcDbSymbolTableRecord
100
AcDbLinetypeTableRecord
  2
ByBlock
 70
     0
  3

 72
    65
 73
     0
 40
0.0
  0
LTYPE
  5
15
330
5
100
AcDbSymbolTableRecord
100
AcDbLinetypeTableRecord
  2
ByLayer
 70
     0
  3

 72
    65
 73
     0
 40
0.0
  0
LTYPE
  5
16
330
5
100
AcDbSymbolTableRecord
100
AcDbLinetypeTableRecord
  2
Continuous
 70
     0
  3
Solid line
 72
    65
 73
     0
 40
0.0
  0
ENDTAB
  0
TABLE
  2
LAYER
  5
2
330
0
100
AcDbSymbolTable
 70
     2
  0
LAYER
  5
10
330
2
100
AcDbSymbolTableRecord
100
AcDbLayerTableRecord
  2
0
 70
     0
 62
     7
  6
Continuous
370
    -3
390
F
  0
LAYER
  5
4B1
330
2
100
AcDbSymbolTableRecord
100
AcDbLayerTableRecord
  2
Defpoints
 70
     0
 62
     7
  6
Continuous
290
     0
370
    -3
390
F
  0
ENDTAB
  0
TABLE
  2
STYLE
  5
3
330
0
100
AcDbSymbolTable
 70
     2
  0
STYLE
  5
11
330
3
100
AcDbSymbolTableRecord
100
AcDbTextStyleTableRecord
  2
Standard
 70
     0
 40
0.0
 41
1.0
 50
0.0
 71
     0
 42
0.2
  3
ARIAL.TTF
  4

1001
ACAD
1000
Arial
1071
       34
  0
STYLE
  5
45A
330
3
100
AcDbSymbolTableRecord
100
AcDbTextStyleTableRecord
  2
Text
 70
     0
 40
0.0
 41
1.0
 50
0.0
 71
     0
 42
0.09375
  3
TIMES.TTF
  4

1001
ACAD
1000
Times New Roman
1071
       18
  0
ENDTAB
  0
TABLE
  2
VIEW
  5
6
330
0
100
AcDbSymbolTable
 70
     0
  0
ENDTAB
  0
TABLE
  2
UCS
  5
7
330
0
100
AcDbSymbolTable
 70
     0
  0
ENDTAB
  0
TABLE
  2
APPID
  5
9
330
0
100
AcDbSymbolTable
 70
     9
  0
APPID
  5
12
330
9
100
AcDbSymbolTableRecord
100
AcDbRegAppTableRecord
  2
ACAD
 70
     0
  0
APPID
  5
8C
330
9
100
AcDbSymbolTableRecord
100
AcDbRegAppTableRecord
  2
ACAD_DSTYLE_DIMTEXT_FILL
 70
     0
  0
APPID
  5
8D
330
9
100
AcDbSymbolTableRecord
100
AcDbRegAppTableRecord
  2
ACAD_DSTYLE_DIMEXT_LENGTH
 70
     0
  0
APPID
  5
8E
330
9
100
AcDbSymbolTableRecord
100
AcDbRegAppTableRecord
  2
ACAD_DSTYLE_DIMEXT_ENABLED
 70
     0
  0
APPID
  5
8F
330
9
100
AcDbSymbolTableRecord
100
AcDbRegAppTableRecord
  2
ACAD_DSTYLE_DIM_LINETYPE
 70
     0
  0
APPID
  5
90
330
9
100
AcDbSymbolTableRecord
100
AcDbRegAppTableRecord
  2
ACAD_DSTYLE_DIM_EXT1_LINETYPE
 70
     0
  0
APPID
  5
91
330
9
100
AcDbSymbolTableRecord
100
AcDbRegAppTableRecord
  2
ACAD_DSTYLE_DIM_EXT2_LINETYPE
 70
     0
  0
APPID
  5
14D
330
9
100
AcDbSymbolTableRecord
100
AcDbRegAppTableRecord
  2
ACAD_DSTYLE_DIMJOGGED_JOGANGLE_SYMBOL
 70
     0
  0
APPID
  5
3F5
330
9
100
AcDbSymbolTableRecord
100
AcDbRegAppTableRecord
  2
ACAD_DSTYLE_DIMARC_LENGTH_SYMBOL
 70
     0
  0
ENDTAB
  0
TABLE
  2
DIMSTYLE
  5
A
330
0
100
AcDbSymbolTable
 70
     1
100
AcDbDimStyleTable
 71
     1
340
27
  0
DIMSTYLE
105
27
102
{ACAD_REACTORS
330
5C8
330
5C9
102
}
330
A
100
AcDbSymbolTableRecord
100
AcDbDimStyleTableRecord
  2
Standard
 70
     0
  3
"
 40
10.0
 78
     8
271
     6
272
     6
277
     5
340
11
1001
ACAD_DSTYLE_DIMEXT_LENGTH
1070
   378
1040
0.18
1001
ACAD_DSTYLE_DIMEXT_ENABLED
1070
   383
1070
     0
1001
ACAD_DSTYLE_DIMARC_LENGTH_SYMBOL
1070
   379
1070
     0
1001
ACAD_DSTYLE_DIMJOGGED_JOGANGLE_SYMBOL
1070
   384
1040
0.7853981633974483
  0
ENDTAB
  0
TABLE
  2
BLOCK_RECORD
  5
1
330
0
100
AcDbSymbolTable
 70
     7
  0
BLOCK_RECORD
  5
1F
330
1
100
AcDbSymbolTableRecord
100
AcDbBlockTableRecord
  2
*Model_Space
340
22
  0
BLOCK_RECORD
  5
58
330
1
100
AcDbSymbolTableRecord
100
AcDbBlockTableRecord
  2
*Paper_Space
340
59
  0
BLOCK_RECORD
  5
5D
330
1
100
AcDbSymbolTableRecord
100
AcDbBlockTableRecord
  2
*Paper_Space0
340
5E
  0
BLOCK_RECORD
  5
45B
330
1
100
AcDbSymbolTableRecord
100
AcDbBlockTableRecord
  2
STD HARDWARE
340
0
1001
ACAD
1000
DesignCenter Data
1002
{
1070
     1
1070
     1
1002
}
  0
BLOCK_RECORD
  5
483
330
1
100
AcDbSymbolTableRecord
100
AcDbBlockTableRecord
  2
9 X 14 WINDOW
340
0
102
{BLKREFS
331
5B3
331
5B4
331
5B5
102
}
1001
ACAD
1000
DesignCenter Data
1002
{
1070
     1
1070
     1
1002
}
  0
BLOCK_RECORD
  5
5CC
330
1
100
AcDbSymbolTableRecord
100
AcDbBlockTableRecord
  2
*D5
340
0
  0
BLOCK_RECORD
  5
5E3
330
1
100
AcDbSymbolTableRecord
100
AcDbBlockTableRecord
  2
*D6
340
0
  0
ENDTAB
  0
ENDSEC
  0
SECTION
  2
BLOCKS
  0
BLOCK
  5
20
330
1F
100
AcDbEntity
  8
0
100
AcDbBlockBegin
  2
*Model_Space
 70
     0
 10
0.0
 20
0.0
 30
0.0
  3
*Model_Space
  1

  0
ENDBLK
  5
21
330
1F
100
AcDbEntity
  8
0
100
AcDbBlockEnd
  0
BLOCK
  5
5A
330
58
100
AcDbEntity
 67
     1
  8
0
100
AcDbBlockBegin
  2
*Paper_Space
 70
     0
 10
0.0
 20
0.0
 30
0.0
  3
*Paper_Space
  1

  0
ENDBLK
  5
5B
330
58
100
AcDbEntity
 67
     1
  8
0
100
AcDbBlockEnd
  0
BLOCK
  5
5F
330
5D
100
AcDbEntity
 67
     1
  8
0
100
AcDbBlockBegin
  2
*Paper_Space0
 70
     0
 10
0.0
 20
0.0
 30
0.0
  3
*Paper_Space0
  1

  0
ENDBLK
  5
60
330
5D
100
AcDbEntity
 67
     1
  8
0
100
AcDbBlockEnd
  0
BLOCK
  5
478
330
45B
100
AcDbEntity
  8
0
100
AcDbBlockBegin
  2
STD HARDWARE
 70
     0
 10
0.0
 20
0.0
 30
0.0
  3
STD HARDWARE
  1

  0
LINE
  5
45C
330
45B
100
AcDbEntity
  8
0
100
AcDbLine
 10
82.12366255362965
 20
8.756831083884661
 30
0.0
 11
76.86625515496868
 21
8.756831083884661
 31
0.0
  0
TEXT
  5
45D
330
45B
100
AcDbEntity
  8
0
100
AcDbText
 10
77.99045541258468
 20
10.2831493526444
 30
0.0
 40
0.4775366748046875
  1
ELIASON
 50
0.0000000000016284
  7
Text
100
AcDbText
  0
LINE
  5
45E
330
45B
100
AcDbEntity
  8
0
100
AcDbLine
 10
68.84275595548828
 20
7.684993821821556
 30
0.0
 11
68.84275595548828
 21
11.9196923132278
 31
0.0
  0
LINE
  5
45F
330
45B
100
AcDbEntity
  8
0
100
AcDbLine
 10
69.00991510646488
 20
7.684993821821556
 30
0.0
 11
69.00991510646488
 21
11.9196923132278
 31
0.0
  0
LINE
  5
460
330
45B
100
AcDbEntity
  8
0
100
AcDbLine
 10
66.05677010587894
 20
7.462114953852811
 30
0.0
 11
68.61987708751954
 21
7.462114953852811
 31
0.0
  0
LINE
  5
461
330
45B
100
AcDbEntity
  8
0
100
AcDbLine
 10
66.05677010587894
 20
7.294955802876238
 30
0.0
 11
68.61987708751954
 21
7.294955802876238
 31
0.0
  0
CIRCLE
  5
462
330
45B
100
AcDbEntity
  8
0
100
AcDbCircle
 10
66.27964897384768
 20
8.576509293696553
 30
0.0
 40
0.1671591509765625
  0
LWPOLYLINE
  5
463
330
45B
100
AcDbEntity
  8
0
100
AcDbPolyline
 90
        4
 70
     1
 43
0.0
 10
67.61692218166027
 20
9.913782501509068
 10
64.94237576603532
 20
9.913782501509068
 10
64.94237576603532
 20
8.10745580287624
 10
67.61692218166027
 20
8.107455802876238
  0
LINE
  5
464
330
45B
100
AcDbEntity
  8
0
100
AcDbLine
 10
66.05677010587894
 20
7.294955802876238
 30
0.0
 11
66.05677010587894
 21
7.462114953852811
 31
0.0
  0
CIRCLE
  5
465
330
45B
100
AcDbEntity
  8
0
100
AcDbCircle
 10
65.3324137849805
 20
9.468024765571549
 30
0.0
 40
0.1671591509765625
  0
LWPOLYLINE
  5
466
330
45B
100
AcDbEntity
  8
0
100
AcDbPolyline
 90
        4
 70
     0
 43
0.0
 10
66.94828557775386
 20
8.107455802876238
 10
66.94828557775386
 20
7.462114953852811
 10
67.39404331369147
 20
7.462114953852811
 10
67.39404331369147
 20
8.107455802876238
  0
CIRCLE
  5
467
330
45B
100
AcDbEntity
  8
0
100
AcDbCircle
 10
67.22688416271487
 20
9.468024765571549
 30
0.0
 40
0.1671591509765625
  0
ARC
  5
468
330
45B
100
AcDbEntity
  8
0
100
AcDbCircle
 10
68.61987708751954
 20
7.684993821821556
 30
0.0
 40
0.3900380189453125
100
AcDbArc
 50
270.0
 51
0.0
  0
LINE
  5
469
330
45B
100
AcDbEntity
  8
0
100
AcDbLine
 10
68.61987708751954
 20
7.294955802876238
 30
0.0
 11
69.00991510646488
 21
7.294955802876238
 31
0.0
  0
ARC
  5
46A
330
45B
100
AcDbEntity
  8
0
100
AcDbCircle
 10
68.61987708751954
 20
7.684993821821556
 30
0.0
 40
0.22287886796875
100
AcDbArc
 50
270.0
 51
0.0
  0
LINE
  5
46B
330
45B
100
AcDbEntity
  8
0
100
AcDbLine
 10
68.84275595548828
 20
11.9196923132278
 30
0.0
 11
69.00991510646488
 21
11.9196923132278
 31
0.0
  0
LINE
  5
46C
330
45B
100
AcDbEntity
  8
0
100
AcDbLine
 10
76.86625515496868
 20
8.756831083884661
 30
0.0
 11
76.86625515496868
 21
12.50683108388466
 31
0.0
  0
LINE
  5
46D
330
45B
100
AcDbEntity
  8
0
100
AcDbLine
 10
83.43951374096471
 20
12.81933108388466
 30
0.0
 11
83.43951374096471
 21
9.256831083884662
 31
0.0
  0
LINE
  5
46E
330
45B
100
AcDbEntity
  8
0
100
AcDbLine
 10
82.12366255362965
 20
12.50683108388466
 30
0.0
 11
82.12366255362965
 21
8.756831083884661
 31
0.0
  0
LINE
  5
46F
330
45B
100
AcDbEntity
  8
0
100
AcDbLine
 10
83.62701374096472
 20
9.256831083884662
 30
0.0
 11
83.43951374096471
 21
9.256831083884662
 31
0.0
  0
LINE
  5
470
330
45B
100
AcDbEntity
  8
0
100
AcDbLine
 10
83.18951374096471
 20
13.06933108388466
 30
0.0
 11
78.37701374096472
 21
13.06933108388466
 31
0.0
  0
LINE
  5
471
330
45B
100
AcDbEntity
  8
0
100
AcDbLine
 10
83.18951374096471
 20
13.25683108388466
 30
0.0
 11
78.37701374096472
 21
13.25683108388466
 31
0.0
  0
LINE
  5
472
330
45B
100
AcDbEntity
  8
0
100
AcDbLine
 10
78.37701374096472
 20
13.06933108388466
 30
0.0
 11
78.37701374096472
 21
13.25683108388466
 31
0.0
  0
LINE
  5
473
330
45B
100
AcDbEntity
  8
0
100
AcDbLine
 10
79.43951374096471
 20
13.06933108388466
 30
0.0
 11
79.43951374096471
 21
12.50683108388466
 31
0.0
  0
LINE
  5
474
330
45B
100
AcDbEntity
  8
0
100
AcDbLine
 10
80.31451374096471
 20
13.06933108388466
 30
0.0
 11
80.31451374096471
 21
12.50683108388466
 31
0.0
  0
ARC
  5
475
330
45B
100
AcDbEntity
  8
0
100
AcDbCircle
 10
83.18951374096471
 20
12.81933108388466
 30
0.0
 40
0.25
100
AcDbArc
 50
0.0
 51
90.0
  0
LINE
  5
476
330
45B
100
AcDbEntity
  8
0
100
AcDbLine
 10
83.62701374096472
 20
13.25683108388466
 30
0.0
 11
83.18951374096471
 21
13.25683108388466
 31
0.0
  0
ARC
  5
477
330
45B
100
AcDbEntity
  8
0
100
AcDbCircle
 10
83.18951374096471
 20
12.81933108388466
 30
0.0
 40
0.4375
100
AcDbArc
 50
0.0
 51
90.0
  0
ENDBLK
  5
479
330
45B
100
AcDbEntity
  8
0
100
AcDbBlockEnd
  0
BLOCK
  5
484
330
483
100
AcDbEntity
  8
0
100
AcDbBlockBegin
  2
9 X 14 WINDOW
 70
     0
 10
0.0
 20
0.0
 30
0.0
  3
9 X 14 WINDOW
  1

  0
LINE
  5
485
330
483
100
AcDbEntity
  8
0
100
AcDbLine
 10
6.500000000000012
 20
66.0
 30
0.0
 11
11.00000000000001
 21
66.0
 31
0.0
  0
ARC
  5
486
330
483
100
AcDbEntity
  8
0
100
AcDbCircle
 10
6.500000000000009
 20
54.24999999999999
 30
0.0
 40
2.75
100
AcDbArc
 50
180.0
 51
270.0
  0
LINE
  5
487
330
483
100
AcDbEntity
  8
0
100
AcDbLine
 10
6.500000000000009
 20
51.49999999999999
 30
0.0
 11
11.00000000000001
 21
51.49999999999999
 31
0.0
  0
ARC
  5
488
330
483
100
AcDbEntity
  8
0
100
AcDbCircle
 10
11.00000000000001
 20
54.24999999999999
 30
0.0
 40
2.75
100
AcDbArc
 50
270.0
 51
0.0
  0
LINE
  5
489
330
483
100
AcDbEntity
  8
0
100
AcDbLine
 10
13.75000000000001
 20
54.24999999999999
 30
0.0
 11
13.75000000000001
 21
63.75
 31
0.0
  0
ARC
  5
48A
330
483
100
AcDbEntity
  8
0
100
AcDbCircle
 10
11.00000000000001
 20
63.75
 30
0.0
 40
2.75
100
AcDbArc
 50
0.0
 51
90.0
  0
LINE
  5
48B
330
483
100
AcDbEntity
  8
0
100
AcDbLine
 10
6.500000000000012
 20
66.5
 30
0.0
 11
11.00000000000001
 21
66.5
 31
0.0
  0
ARC
  5
48C
330
483
100
AcDbEntity
  8
0
100
AcDbCircle
 10
6.500000000000012
 20
63.75
 30
0.0
 40
2.75
100
AcDbArc
 50
90.0
 51
180.0
  0
LINE
  5
48D
330
483
100
AcDbEntity
  8
0
100
AcDbLine
 10
3.750000000000009
 20
54.24999999999999
 30
0.0
 11
3.750000000000012
 21
63.75
 31
0.0
  0
ARC
  5
48E
330
483
100
AcDbEntity
  8
0
100
AcDbCircle
 10
11.00000000000001
 20
54.24999999999999
 30
0.0
 40
2.25
100
AcDbArc
 50
270.0
 51
0.0
  0
ARC
  5
48F
330
483
100
AcDbEntity
  8
0
100
AcDbCircle
 10
11.00000000000001
 20
63.75
 30
0.0
 40
2.25
100
AcDbArc
 50
0.0
 51
90.0
  0
ARC
  5
490
330
483
100
AcDbEntity
  8
0
100
AcDbCircle
 10
6.500000000000012
 20
63.75
 30
0.0
 40
2.25
100
AcDbArc
 50
90.0
 51
180.0
  0
ARC
  5
491
330
483
100
AcDbEntity
  8
0
100
AcDbCircle
 10
6.500000000000009
 20
54.24999999999999
 30
0.0
 40
2.25
100
AcDbArc
 50
180.0
 51
270.0
  0
LINE
  5
492
330
483
100
AcDbEntity
  8
0
100
AcDbLine
 10
6.500000000000009
 20
51.99999999999999
 30
0.0
 11
11.00000000000001
 21
51.99999999999999
 31
0.0
  0
LINE
  5
493
330
483
100
AcDbEntity
  8
0
100
AcDbLine
 10
6.500000000000012
 20
66.0
 30
0.0
 11
11.00000000000001
 21
66.0
 31
0.0
  0
LINE
  5
494
330
483
100
AcDbEntity
  8
0
100
AcDbLine
 10
13.25000000000001
 20
54.24999999999999
 30
0.0
 11
13.25000000000001
 21
63.75
 31
0.0
  0
LINE
  5
495
330
483
100
AcDbEntity
  8
0
100
AcDbLine
 10
4.250000000000009
 20
54.24999999999999
 30
0.0
 11
4.250000000000012
 21
63.75
 31
0.0
  0
ENDBLK
  5
496
330
483
100
AcDbEntity
  8
0
100
AcDbBlockEnd
  0
BLOCK
  5
5D7
330
5CC
100
AcDbEntity
  8
0
100
AcDbBlockBegin
  2
*D5
 70
     1
 10
0.0
 20
0.0
 30
0.0
  3
*D5
  1

  0
LINE
  5
5D9
330
5CC
100
AcDbEntity
  8
0
 62
     0
370
    -2
100
AcDbLine
 10
-20.02256739385294
 20
-56.72569471252072
 30
0.0
 11
-26.15913413722291
 21
-56.72569471252072
 31
0.0
  0
LINE
  5
5DA
330
5CC
100
AcDbEntity
  8
0
 62
     0
370
    -2
100
AcDbLine
 10
2.35243260614704
 20
3.274305287479251
 30
0.0
 11
-26.1591341372229
 21
3.274305287479259
 31
0.0
  0
LINE
  5
5DB
330
5CC
100
AcDbEntity
  8
0
 62
     0
370
    -2
100
AcDbLine
 10
-24.35913413722291
 20
-54.92569471252072
 30
0.0
 11
-24.3591341372229
 21
-28.54472609041979
 31
0.0
  0
LINE
  5
5DC
330
5CC
100
AcDbEntity
  8
0
 62
     0
370
    -2
100
AcDbLine
 10
-24.35913413722289
 20
1.474305287479258
 30
0.0
 11
-24.3591341372229
 21
-24.9066633346217
 31
0.0
  0
SOLID
  5
5DD
330
5CC
100
AcDbEntity
  8
0
 62
     0
100
AcDbTrace
 10
-24.65913413722291
 20
-54.92569471252072
 30
0.0
 11
-24.05913413722291
 21
-54.92569471252072
 31
0.0
 12
-24.35913413722291
 22
-56.72569471252072
 32
0.0
 13
-24.35913413722291
 23
-56.72569471252072
 33
0.0
  0
SOLID
  5
5DE
330
5CC
100
AcDbEntity
  8
0
 62
     0
100
AcDbTrace
 10
-24.6591341372229
 20
1.474305287479259
 30
0.0
 11
-24.0591341372229
 21
1.474305287479258
 31
0.0
 12
-24.35913413722289
 22
3.274305287479258
 32
0.0
 13
-24.35913413722289
 23
3.274305287479258
 33
0.0
  0
MTEXT
  5
5DF
330
5CC
100
AcDbEntity
  8
0
 62
     0
100
AcDbMText
 10
-24.35913413722289
 20
-26.72569471252075
 30
0.0
 40
1.799999999999999
 41
0.0
 71
     5
 72
     1
  1
\A1;60"
 73
     1
 44
1.0
1001
ACAD
1000
MTEXTBEGIN
1070
    73
1070
     1
1070
    44
1040
1.0
1070
    74
1070
     0
1000
MTEXTEND
  0
POINT
  5
5E0
330
5CC
100
AcDbEntity
  8
Defpoints
 62
     0
100
AcDbPoint
 10
-19.39756739385294
 20
-56.72569471252072
 30
0.0
  0
POINT
  5
5E1
330
5CC
100
AcDbEntity
  8
Defpoints
 62
     0
100
AcDbPoint
 10
2.97743260614704
 20
3.274305287479251
 30
0.0
  0
POINT
  5
5E2
330
5CC
100
AcDbEntity
  8
Defpoints
 62
     0
100
AcDbPoint
 10
-24.35913413722289
 20
3.274305287479258
 30
0.0
  0
ENDBLK
  5
5D8
330
5CC
100
AcDbEntity
  8
0
100
AcDbBlockEnd
  0
BLOCK
  5
5EE
330
5E3
100
AcDbEntity
  8
0
100
AcDbBlockBegin
  2
*D6
 70
     1
 10
0.0
 20
0.0
 30
0.0
  3
*D6
  1

  0
LINE
  5
5E4
330
5E3
100
AcDbEntity
  8
0
 62
     0
370
    -2
100
AcDbLine
 10
91.4966688999705
 20
-56.72569471252074
 30
0.0
 11
84.87173165976612
 21
-56.72569471252074
 31
0.0
  0
LINE
  5
5E5
330
5E3
100
AcDbEntity
  8
0
 62
     0
370
    -2
100
AcDbLine
 10
96.12166889997052
 20
3.274305287479251
 30
0.0
 11
84.87173165976612
 21
3.274305287479254
 31
0.0
  0
LINE
  5
5E6
330
5E3
100
AcDbEntity
  8
0
 62
     0
370
    -2
100
AcDbLine
 10
86.67173165976612
 20
-54.92569471252075
 30
0.0
 11
86.67173165976612
 21
-28.54472609041979
 31
0.0
  0
LINE
  5
5E7
330
5E3
100
AcDbEntity
  8
0
 62
     0
370
    -2
100
AcDbLine
 10
86.67173165976612
 20
1.474305287479253
 30
0.0
 11
86.67173165976612
 21
-24.9066633346217
 31
0.0
  0
SOLID
  5
5E8
330
5E3
100
AcDbEntity
  8
0
 62
     0
100
AcDbTrace
 10
86.3717316597661
 20
-54.92569471252075
 30
0.0
 11
86.97173165976611
 21
-54.92569471252075
 31
0.0
 12
86.67173165976612
 22
-56.72569471252074
 32
0.0
 13
86.67173165976612
 23
-56.72569471252074
 33
0.0
  0
SOLID
  5
5E9
330
5E3
100
AcDbEntity
  8
0
 62
     0
100
AcDbTrace
 10
86.37173165976612
 20
1.474305287479253
 30
0.0
 11
86.97173165976613
 21
1.474305287479253
 31
0.0
 12
86.67173165976612
 22
3.274305287479253
 32
0.0
 13
86.67173165976612
 23
3.274305287479253
 33
0.0
  0
MTEXT
  5
5EA
330
5E3
100
AcDbEntity
  8
0
 62
     0
100
AcDbMText
 10
86.67173165976612
 20
-26.72569471252073
 30
0.0
 40
1.799999999999999
 41
0.0
 71
     5
 72
     1
  1
\A1;60"
 73
     1
 44
1.0
1001
ACAD
1000
MTEXTBEGIN
1070
    73
1070
     1
1070
    44
1040
1.0
1070
    74
1070
     0
1000
MTEXTEND
  0
POINT
  5
5EB
330
5E3
100
AcDbEntity
  8
Defpoints
 62
     0
100
AcDbPoint
 10
92.1216688999705
 20
-56.72569471252074
 30
0.0
  0
POINT
  5
5EC
330
5E3
100
AcDbEntity
  8
Defpoints
 62
     0
100
AcDbPoint
 10
96.74666889997052
 20
3.274305287479251
 30
0.0
  0
POINT
  5
5ED
330
5E3
100
AcDbEntity
  8
Defpoints
 62
     0
100
AcDbPoint
 10
86.67173165976612
 20
3.274305287479253
 30
0.0
  0
ENDBLK
  5
5EF
330
5E3
100
AcDbEntity
  8
0
100
AcDbBlockEnd
  0
ENDSEC
  0
SECTION
  2
ENTITIES
  0
LINE
  5
542
330
1F
100
AcDbEntity
  8
0
100
AcDbLine
 10
-19.39756739385294
 20
27.27430528747925
 30
0.0
 11
52.60243260614706
 21
27.27430528747925
 31
0.0
  0
LINE
  5
543
330
1F
100
AcDbEntity
  8
0
100
AcDbLine
 10
52.60243260614706
 20
27.27430528747925
 30
0.0
 11
52.60243260614706
 21
-56.72569471252074
 31
0.0
  0
LINE
  5
544
330
1F
100
AcDbEntity
  8
0
100
AcDbLine
 10
52.60243260614706
 20
-56.72569471252074
 30
0.0
 11
-19.39756739385294
 21
-56.72569471252074
 31
0.0
  0
LINE
  5
545
330
1F
100
AcDbEntity
  8
0
100
AcDbLine
 10
-19.39756739385294
 20
-56.72569471252074
 30
0.0
 11
-19.39756739385294
 21
27.27430528747925
 31
0.0
  0
LINE
  5
546
330
1F
100
AcDbEntity
  8
0
100
AcDbLine
 10
92.1216688999705
 20
27.27430528747925
 30
0.0
 11
128.1216688999705
 21
27.27430528747925
 31
0.0
  0
LINE
  5
547
330
1F
100
AcDbEntity
  8
0
100
AcDbLine
 10
92.49666889997051
 20
26.52430528747925
 30
0.0
 11
127.7466688999705
 21
26.52430528747925
 31
0.0
  0
LINE
  5
548
330
1F
100
AcDbEntity
  8
0
100
AcDbLine
 10
128.1216688999705
 20
27.27430528747925
 30
0.0
 11
128.1216688999705
 21
-56.72569471252074
 31
0.0
  0
LINE
  5
549
330
1F
100
AcDbEntity
  8
0
100
AcDbLine
 10
127.7466688999705
 20
26.52430528747925
 30
0.0
 11
127.7466688999705
 21
-55.72569471252075
 31
0.0
  0
LINE
  5
54A
330
1F
100
AcDbEntity
  8
0
100
AcDbLine
 10
126.9966688999705
 20
26.52430528747925
 30
0.0
 11
126.9966688999705
 21
-55.72569471252075
 31
0.0
  0
LINE
  5
54B
330
1F
100
AcDbEntity
  8
0
100
AcDbLine
 10
128.1216688999705
 20
-56.72569471252074
 30
0.0
 11
92.1216688999705
 21
-56.72569471252074
 31
0.0
  0
LINE
  5
54C
330
1F
100
AcDbEntity
  8
0
100
AcDbLine
 10
127.7466688999705
 20
-55.72569471252075
 30
0.0
 11
126.7286759751659
 21
-55.72569471252075
 31
0.0
  0
LINE
  5
54D
330
1F
100
AcDbEntity
  8
0
100
AcDbLine
 10
124.0541295595409
 20
-55.72569471252075
 30
0.0
 11
92.49666889997049
 21
-55.72569471252075
 31
0.0
  0
LINE
  5
54E
102
{ACAD_REACTORS
330
5CB
102
}
330
1F
100
AcDbEntity
  8
0
100
AcDbLine
 10
92.1216688999705
 20
-56.72569471252074
 30
0.0
 11
92.1216688999705
 21
27.27430528747925
 31
0.0
  0
LINE
  5
54F
330
1F
100
AcDbEntity
  8
0
100
AcDbLine
 10
92.49666889997049
 20
-55.72569471252075
 30
0.0
 11
92.49666889997049
 21
26.52430528747925
 31
0.0
  0
LINE
  5
550
330
1F
100
AcDbEntity
  8
0
100
AcDbLine
 10
16.97743260614707
 20
26.52430528747925
 30
0.0
 11
52.22743260614706
 21
26.52430528747925
 31
0.0
  0
LINE
  5
551
330
1F
100
AcDbEntity
  8
0
100
AcDbLine
 10
52.22743260614706
 20
26.52430528747925
 30
0.0
 11
52.22743260614706
 21
-55.72569471252075
 31
0.0
  0
LINE
  5
552
330
1F
100
AcDbEntity
  8
0
100
AcDbLine
 10
51.47743260614706
 20
26.52430528747925
 30
0.0
 11
51.47743260614706
 21
-55.72569471252075
 31
0.0
  0
LINE
  5
553
330
1F
100
AcDbEntity
  8
0
100
AcDbLine
 10
52.22743260614706
 20
-55.72569471252075
 30
0.0
 11
51.20943968134245
 21
-55.72569471252075
 31
0.0
  0
LINE
  5
554
330
1F
100
AcDbEntity
  8
0
100
AcDbLine
 10
48.5348932657175
 20
-55.72569471252075
 30
0.0
 11
16.97743260614705
 21
-55.72569471252075
 31
0.0
  0
LINE
  5
555
330
1F
100
AcDbEntity
  8
0
100
AcDbLine
 10
51.47743260614706
 20
-7.725694712520748
 30
0.0
 11
16.97743260614705
 21
-7.725694712520748
 31
0.0
  0
LINE
  5
556
330
1F
100
AcDbEntity
  8
0
100
AcDbLine
 10
16.97743260614705
 20
-55.72569471252075
 30
0.0
 11
16.97743260614705
 21
26.52430528747925
 31
0.0
  0
LINE
  5
557
330
1F
100
AcDbEntity
  8
0
100
AcDbLine
 10
16.2274326061471
 20
26.52430528747925
 30
0.0
 11
-19.02256739385288
 21
26.52430528747928
 31
0.0
  0
LINE
  5
558
330
1F
100
AcDbEntity
  8
0
100
AcDbLine
 10
-19.02256739385288
 20
26.52430528747928
 30
0.0
 11
-19.02256739385294
 21
-55.72569471252072
 31
0.0
  0
LINE
  5
559
330
1F
100
AcDbEntity
  8
0
100
AcDbLine
 10
-18.27256739385288
 20
26.52430528747928
 30
0.0
 11
-18.27256739385294
 21
-55.72569471252072
 31
0.0
  0
LINE
  5
55A
330
1F
100
AcDbEntity
  8
0
100
AcDbLine
 10
-19.02256739385294
 20
-55.72569471252072
 30
0.0
 11
-18.00457446904831
 21
-55.72569471252072
 31
0.0
  0
LINE
  5
55B
330
1F
100
AcDbEntity
  8
0
100
AcDbLine
 10
-15.33002805342336
 20
-55.72569471252072
 30
0.0
 11
16.22743260614705
 21
-55.72569471252075
 31
0.0
  0
LINE
  5
55C
330
1F
100
AcDbEntity
  8
0
100
AcDbLine
 10
-18.27256739385291
 20
-7.72569471252072
 30
0.0
 11
16.2274326061471
 21
-7.725694712520748
 31
0.0
  0
LINE
  5
55D
330
1F
100
AcDbEntity
  8
0
100
AcDbLine
 10
16.22743260614705
 20
-55.72569471252075
 30
0.0
 11
16.22743260614712
 21
26.52430528747925
 31
0.0
  0
LINE
  5
55E
330
1F
100
AcDbEntity
  8
0
100
AcDbLine
 10
126.6183177126354
 20
22.77430528747925
 30
0.0
 11
121.3609103139744
 21
22.77430528747925
 31
0.0
  0
TEXT
  5
55F
330
1F
100
AcDbEntity
  8
0
100
AcDbText
 10
122.4851105715904
 20
24.30062355623898
 30
0.0
 40
0.4775366748046875
  1
ELIASON
 50
0.0000000000016284
  7
Text
100
AcDbText
  0
LINE
  5
560
330
1F
100
AcDbEntity
  8
0
100
AcDbLine
 10
127.9545097489939
 20
-56.33565669357543
 30
0.0
 11
127.9545097489939
 21
-52.10095820216918
 31
0.0
  0
LINE
  5
561
330
1F
100
AcDbEntity
  8
0
100
AcDbLine
 10
128.1216688999705
 20
-56.33565669357543
 30
0.0
 11
128.1216688999705
 21
-52.10095820216918
 31
0.0
  0
LINE
  5
562
330
1F
100
AcDbEntity
  8
0
100
AcDbLine
 10
125.1685238993845
 20
-56.55853556154418
 30
0.0
 11
127.7316308810251
 21
-56.55853556154418
 31
0.0
  0
LINE
  5
563
330
1F
100
AcDbEntity
  8
0
100
AcDbLine
 10
125.1685238993845
 20
-56.72569471252074
 30
0.0
 11
127.7316308810251
 21
-56.72569471252074
 31
0.0
  0
CIRCLE
  5
564
330
1F
100
AcDbEntity
  8
0
100
AcDbCircle
 10
125.3914027673533
 20
-55.44414122170042
 30
0.0
 40
0.1671591509765625
  0
LWPOLYLINE
  5
565
330
1F
100
AcDbEntity
  8
0
100
AcDbPolyline
 90
        4
 70
     1
 43
0.0
 10
126.7286759751659
 20
-54.10686801388791
 10
124.0541295595409
 20
-54.10686801388791
 10
124.0541295595409
 20
-55.91319471252075
 10
126.7286759751659
 20
-55.91319471252075
  0
LINE
  5
566
330
1F
100
AcDbEntity
  8
0
100
AcDbLine
 10
125.1685238993845
 20
-56.72569471252074
 30
0.0
 11
125.1685238993845
 21
-56.55853556154418
 31
0.0
  0
CIRCLE
  5
567
330
1F
100
AcDbEntity
  8
0
100
AcDbCircle
 10
124.4441675784861
 20
-54.55262574982544
 30
0.0
 40
0.1671591509765625
  0
LWPOLYLINE
  5
568
330
1F
100
AcDbEntity
  8
0
100
AcDbPolyline
 90
        4
 70
     0
 43
0.0
 10
126.0600393712595
 20
-55.91319471252075
 10
126.0600393712595
 20
-56.55853556154418
 10
126.5057971071971
 20
-56.55853556154418
 10
126.5057971071971
 20
-55.91319471252075
  0
CIRCLE
  5
569
330
1F
100
AcDbEntity
  8
0
100
AcDbCircle
 10
126.3386379562205
 20
-54.55262574982544
 30
0.0
 40
0.1671591509765625
  0
ARC
  5
56A
330
1F
100
AcDbEntity
  8
0
100
AcDbCircle
 10
127.7316308810251
 20
-56.33565669357543
 30
0.0
 40
0.3900380189453125
100
AcDbArc
 50
270.0
 51
0.0
  0
LINE
  5
56B
330
1F
100
AcDbEntity
  8
0
100
AcDbLine
 10
127.7316308810251
 20
-56.72569471252074
 30
0.0
 11
128.1216688999705
 21
-56.72569471252074
 31
0.0
  0
ARC
  5
56C
330
1F
100
AcDbEntity
  8
0
100
AcDbCircle
 10
127.7316308810251
 20
-56.33565669357543
 30
0.0
 40
0.22287886796875
100
AcDbArc
 50
270.0
 51
0.0
  0
LINE
  5
56D
330
1F
100
AcDbEntity
  8
0
100
AcDbLine
 10
127.9545097489939
 20
-52.10095820216918
 30
0.0
 11
128.1216688999705
 21
-52.10095820216918
 31
0.0
  0
LINE
  5
56E
330
1F
100
AcDbEntity
  8
0
100
AcDbLine
 10
121.3609103139744
 20
22.77430528747925
 30
0.0
 11
121.3609103139744
 21
26.52430528747925
 31
0.0
  0
LINE
  5
56F
330
1F
100
AcDbEntity
  8
0
100
AcDbLine
 10
127.9341688999705
 20
26.83680528747925
 30
0.0
 11
127.9341688999705
 21
23.27430528747925
 31
0.0
  0
LINE
  5
570
330
1F
100
AcDbEntity
  8
0
100
AcDbLine
 10
126.6183177126354
 20
26.52430528747925
 30
0.0
 11
126.6183177126354
 21
22.77430528747925
 31
0.0
  0
LINE
  5
571
330
1F
100
AcDbEntity
  8
0
100
AcDbLine
 10
128.1216688999705
 20
23.27430528747925
 30
0.0
 11
127.9341688999705
 21
23.27430528747925
 31
0.0
  0
LINE
  5
572
330
1F
100
AcDbEntity
  8
0
100
AcDbLine
 10
127.6841688999705
 20
27.08680528747925
 30
0.0
 11
122.8716688999705
 21
27.08680528747925
 31
0.0
  0
LINE
  5
573
330
1F
100
AcDbEntity
  8
0
100
AcDbLine
 10
127.6841688999705
 20
27.27430528747925
 30
0.0
 11
122.8716688999705
 21
27.27430528747925
 31
0.0
  0
LINE
  5
574
330
1F
100
AcDbEntity
  8
0
100
AcDbLine
 10
122.8716688999705
 20
27.08680528747925
 30
0.0
 11
122.8716688999705
 21
27.27430528747925
 31
0.0
  0
LINE
  5
575
330
1F
100
AcDbEntity
  8
0
100
AcDbLine
 10
123.9341688999705
 20
27.08680528747925
 30
0.0
 11
123.9341688999705
 21
26.52430528747925
 31
0.0
  0
LINE
  5
576
330
1F
100
AcDbEntity
  8
0
100
AcDbLine
 10
124.8091688999705
 20
27.08680528747925
 30
0.0
 11
124.8091688999705
 21
26.52430528747925
 31
0.0
  0
ARC
  5
577
330
1F
100
AcDbEntity
  8
0
100
AcDbCircle
 10
127.6841688999705
 20
26.83680528747925
 30
0.0
 40
0.25
100
AcDbArc
 50
0.0
 51
90.0
  0
LINE
  5
578
330
1F
100
AcDbEntity
  8
0
100
AcDbLine
 10
128.1216688999705
 20
27.27430528747925
 30
0.0
 11
127.6841688999705
 21
27.27430528747925
 31
0.0
  0
ARC
  5
579
330
1F
100
AcDbEntity
  8
0
100
AcDbCircle
 10
127.6841688999705
 20
26.83680528747925
 30
0.0
 40
0.4375
100
AcDbArc
 50
0.0
 51
90.0
  0
LINE
  5
57A
330
1F
100
AcDbEntity
  8
0
100
AcDbLine
 10
51.099081418812
 20
22.77430528747925
 30
0.0
 11
45.84167402015103
 21
22.77430528747925
 31
0.0
  0
TEXT
  5
57B
330
1F
100
AcDbEntity
  8
0
100
AcDbText
 10
46.96587427776703
 20
24.30062355623898
 30
0.0
 40
0.4775366748046875
  1
ELIASON
 50
0.0000000000016284
  7
Text
100
AcDbText
  0
LINE
  5
57C
330
1F
100
AcDbEntity
  8
0
100
AcDbLine
 10
52.43527345517046
 20
-56.33565669357543
 30
0.0
 11
52.43527345517046
 21
-52.10095820216918
 31
0.0
  0
LINE
  5
57D
330
1F
100
AcDbEntity
  8
0
100
AcDbLine
 10
52.60243260614706
 20
-56.33565669357543
 30
0.0
 11
52.60243260614706
 21
-52.10095820216918
 31
0.0
  0
LINE
  5
57E
330
1F
100
AcDbEntity
  8
0
100
AcDbLine
 10
49.64928760556111
 20
-56.55853556154418
 30
0.0
 11
52.21239458720171
 21
-56.55853556154418
 31
0.0
  0
LINE
  5
57F
330
1F
100
AcDbEntity
  8
0
100
AcDbLine
 10
49.64928760556111
 20
-56.72569471252074
 30
0.0
 11
52.21239458720171
 21
-56.72569471252074
 31
0.0
  0
CIRCLE
  5
580
330
1F
100
AcDbEntity
  8
0
100
AcDbCircle
 10
49.87216647352986
 20
-55.44414122170042
 30
0.0
 40
0.1671591509765625
  0
LWPOLYLINE
  5
581
330
1F
100
AcDbEntity
  8
0
100
AcDbPolyline
 90
        4
 70
     1
 43
0.0
 10
51.20943968134245
 20
-54.10686801388791
 10
48.5348932657175
 20
-54.10686801388791
 10
48.5348932657175
 20
-55.91319471252075
 10
51.20943968134245
 20
-55.91319471252075
  0
LINE
  5
582
330
1F
100
AcDbEntity
  8
0
100
AcDbLine
 10
49.64928760556111
 20
-56.72569471252074
 30
0.0
 11
49.64928760556111
 21
-56.55853556154418
 31
0.0
  0
CIRCLE
  5
583
330
1F
100
AcDbEntity
  8
0
100
AcDbCircle
 10
48.92493128466267
 20
-54.55262574982544
 30
0.0
 40
0.1671591509765625
  0
LWPOLYLINE
  5
584
330
1F
100
AcDbEntity
  8
0
100
AcDbPolyline
 90
        4
 70
     0
 43
0.0
 10
50.54080307743603
 20
-55.91319471252075
 10
50.54080307743603
 20
-56.55853556154418
 10
50.98656081337364
 20
-56.55853556154418
 10
50.98656081337364
 20
-55.91319471252075
  0
CIRCLE
  5
585
330
1F
100
AcDbEntity
  8
0
100
AcDbCircle
 10
50.81940166239704
 20
-54.55262574982544
 30
0.0
 40
0.1671591509765625
  0
ARC
  5
586
330
1F
100
AcDbEntity
  8
0
100
AcDbCircle
 10
52.21239458720171
 20
-56.33565669357543
 30
0.0
 40
0.3900380189453125
100
AcDbArc
 50
270.0
 51
0.0
  0
LINE
  5
587
330
1F
100
AcDbEntity
  8
0
100
AcDbLine
 10
52.21239458720171
 20
-56.72569471252074
 30
0.0
 11
52.60243260614706
 21
-56.72569471252074
 31
0.0
  0
ARC
  5
588
330
1F
100
AcDbEntity
  8
0
100
AcDbCircle
 10
52.21239458720171
 20
-56.33565669357543
 30
0.0
 40
0.22287886796875
100
AcDbArc
 50
270.0
 51
0.0
  0
LINE
  5
589
330
1F
100
AcDbEntity
  8
0
100
AcDbLine
 10
52.43527345517046
 20
-52.10095820216918
 30
0.0
 11
52.60243260614706
 21
-52.10095820216918
 31
0.0
  0
LINE
  5
58A
330
1F
100
AcDbEntity
  8
0
100
AcDbLine
 10
45.84167402015103
 20
22.77430528747925
 30
0.0
 11
45.84167402015103
 21
26.52430528747925
 31
0.0
  0
LINE
  5
58B
330
1F
100
AcDbEntity
  8
0
100
AcDbLine
 10
52.41493260614706
 20
26.83680528747925
 30
0.0
 11
52.41493260614706
 21
23.27430528747925
 31
0.0
  0
LINE
  5
58C
330
1F
100
AcDbEntity
  8
0
100
AcDbLine
 10
51.099081418812
 20
26.52430528747925
 30
0.0
 11
51.099081418812
 21
22.77430528747925
 31
0.0
  0
LINE
  5
58D
330
1F
100
AcDbEntity
  8
0
100
AcDbLine
 10
52.60243260614706
 20
23.27430528747925
 30
0.0
 11
52.41493260614706
 21
23.27430528747925
 31
0.0
  0
LINE
  5
58E
330
1F
100
AcDbEntity
  8
0
100
AcDbLine
 10
52.16493260614706
 20
27.08680528747925
 30
0.0
 11
47.35243260614706
 21
27.08680528747925
 31
0.0
  0
LINE
  5
58F
330
1F
100
AcDbEntity
  8
0
100
AcDbLine
 10
52.16493260614706
 20
27.27430528747925
 30
0.0
 11
47.35243260614706
 21
27.27430528747925
 31
0.0
  0
LINE
  5
590
330
1F
100
AcDbEntity
  8
0
100
AcDbLine
 10
47.35243260614706
 20
27.08680528747925
 30
0.0
 11
47.35243260614706
 21
27.27430528747925
 31
0.0
  0
LINE
  5
591
330
1F
100
AcDbEntity
  8
0
100
AcDbLine
 10
48.41493260614706
 20
27.08680528747925
 30
0.0
 11
48.41493260614706
 21
26.52430528747925
 31
0.0
  0
LINE
  5
592
330
1F
100
AcDbEntity
  8
0
100
AcDbLine
 10
49.28993260614706
 20
27.08680528747925
 30
0.0
 11
49.28993260614706
 21
26.52430528747925
 31
0.0
  0
ARC
  5
593
330
1F
100
AcDbEntity
  8
0
100
AcDbCircle
 10
52.16493260614706
 20
26.83680528747925
 30
0.0
 40
0.25
100
AcDbArc
 50
0.0
 51
90.0
  0
LINE
  5
594
330
1F
100
AcDbEntity
  8
0
100
AcDbLine
 10
52.60243260614706
 20
27.27430528747925
 30
0.0
 11
52.16493260614706
 21
27.27430528747925
 31
0.0
  0
ARC
  5
595
330
1F
100
AcDbEntity
  8
0
100
AcDbCircle
 10
52.16493260614706
 20
26.83680528747925
 30
0.0
 40
0.4375
100
AcDbArc
 50
0.0
 51
90.0
  0
LINE
  5
596
330
1F
100
AcDbEntity
  8
0
100
AcDbLine
 10
-17.89421620651783
 20
22.77430528747928
 30
0.0
 11
-12.63680880785685
 21
22.77430528747928
 31
0.0
  0
TEXT
  5
597
330
1F
100
AcDbEntity
  8
0
100
AcDbText
 10
-16.78150599990798
 20
24.30062355623909
 30
0.0
 40
0.4775366748046874
  1
ELIASON
 50
359.9999999999984
  7
Text
100
AcDbText
  0
LINE
  5
598
330
1F
100
AcDbEntity
  8
0
100
AcDbLine
 10
-19.23040824287632
 20
-56.3356566935754
 30
0.0
 11
-19.23040824287632
 21
-52.10095820216915
 31
0.0
  0
LINE
  5
599
330
1F
100
AcDbEntity
  8
0
100
AcDbLine
 10
-19.39756739385293
 20
-56.3356566935754
 30
0.0
 11
-19.39756739385293
 21
-52.10095820216915
 31
0.0
  0
LINE
  5
59A
330
1F
100
AcDbEntity
  8
0
100
AcDbLine
 10
-16.44442239326698
 20
-56.55853556154415
 30
0.0
 11
-19.00752937490758
 21
-56.55853556154415
 31
0.0
  0
LINE
  5
59B
330
1F
100
AcDbEntity
  8
0
100
AcDbLine
 10
-16.44442239326698
 20
-56.72569471252072
 30
0.0
 11
-19.00752937490758
 21
-56.72569471252072
 31
0.0
  0
CIRCLE
  5
59C
330
1F
100
AcDbEntity
  8
0
100
AcDbCircle
 10
-16.66730126123572
 20
-55.44414122170042
 30
0.0
 40
0.1671591509765625
  0
LWPOLYLINE
  5
59D
330
1F
100
AcDbEntity
  8
0
100
AcDbPolyline
 90
        4
 70
     1
 43
0.0
 10
-18.00457446904831
 20
-54.10686801388789
 10
-15.33002805342336
 20
-54.10686801388789
 10
-15.33002805342336
 20
-55.91319471252075
 10
-18.00457446904831
 20
-55.91319471252072
  0
LINE
  5
59E
330
1F
100
AcDbEntity
  8
0
100
AcDbLine
 10
-16.44442239326698
 20
-56.72569471252072
 30
0.0
 11
-16.44442239326698
 21
-56.55853556154415
 31
0.0
  0
CIRCLE
  5
59F
330
1F
100
AcDbEntity
  8
0
100
AcDbCircle
 10
-15.72006607236854
 20
-54.55262574982544
 30
0.0
 40
0.1671591509765625
  0
LWPOLYLINE
  5
5A0
330
1F
100
AcDbEntity
  8
0
100
AcDbPolyline
 90
        4
 70
     0
 43
0.0
 10
-17.3359378651419
 20
-55.91319471252072
 10
-17.3359378651419
 20
-56.55853556154415
 10
-17.78169560107951
 20
-56.55853556154415
 10
-17.78169560107951
 20
-55.91319471252072
  0
CIRCLE
  5
5A1
330
1F
100
AcDbEntity
  8
0
100
AcDbCircle
 10
-17.61453645010291
 20
-54.5526257498254
 30
0.0
 40
0.1671591509765625
  0
ARC
  5
5A2
330
1F
100
AcDbEntity
  8
0
100
AcDbCircle
 10
-19.00752937490758
 20
-56.3356566935754
 30
0.0
 40
0.3900380189453123
100
AcDbArc
 50
180.0
 51
270.0
  0
LINE
  5
5A3
330
1F
100
AcDbEntity
  8
0
100
AcDbLine
 10
-19.00752937490758
 20
-56.72569471252072
 30
0.0
 11
-19.39756739385293
 21
-56.72569471252072
 31
0.0
  0
ARC
  5
5A4
330
1F
100
AcDbEntity
  8
0
100
AcDbCircle
 10
-19.00752937490758
 20
-56.3356566935754
 30
0.0
 40
0.2228788679687499
100
AcDbArc
 50
180.0
 51
270.0
  0
LINE
  5
5A5
330
1F
100
AcDbEntity
  8
0
100
AcDbLine
 10
-19.23040824287632
 20
-52.10095820216915
 30
0.0
 11
-19.39756739385293
 21
-52.10095820216915
 31
0.0
  0
LINE
  5
5A6
330
1F
100
AcDbEntity
  8
0
100
AcDbLine
 10
-12.63680880785685
 20
22.77430528747928
 30
0.0
 11
-12.63680880785685
 21
26.52430528747928
 31
0.0
  0
LINE
  5
5A7
330
1F
100
AcDbEntity
  8
0
100
AcDbLine
 10
-19.21006739385288
 20
26.83680528747928
 30
0.0
 11
-19.21006739385288
 21
23.27430528747928
 31
0.0
  0
LINE
  5
5A8
330
1F
100
AcDbEntity
  8
0
100
AcDbLine
 10
-17.89421620651783
 20
26.52430528747928
 30
0.0
 11
-17.89421620651783
 21
22.77430528747928
 31
0.0
  0
LINE
  5
5A9
330
1F
100
AcDbEntity
  8
0
100
AcDbLine
 10
-19.39756739385288
 20
23.27430528747928
 30
0.0
 11
-19.21006739385288
 21
23.27430528747928
 31
0.0
  0
LINE
  5
5AA
330
1F
100
AcDbEntity
  8
0
100
AcDbLine
 10
-18.96006739385288
 20
27.08680528747928
 30
0.0
 11
-14.14756739385288
 21
27.08680528747928
 31
0.0
  0
LINE
  5
5AB
330
1F
100
AcDbEntity
  8
0
100
AcDbLine
 10
-18.96006739385288
 20
27.27430528747928
 30
0.0
 11
-14.14756739385288
 21
27.27430528747928
 31
0.0
  0
LINE
  5
5AC
330
1F
100
AcDbEntity
  8
0
100
AcDbLine
 10
-14.14756739385288
 20
27.08680528747928
 30
0.0
 11
-14.14756739385288
 21
27.27430528747928
 31
0.0
  0
LINE
  5
5AD
330
1F
100
AcDbEntity
  8
0
100
AcDbLine
 10
-15.21006739385288
 20
27.08680528747928
 30
0.0
 11
-15.21006739385288
 21
26.52430528747928
 31
0.0
  0
LINE
  5
5AE
330
1F
100
AcDbEntity
  8
0
100
AcDbLine
 10
-16.08506739385288
 20
27.08680528747928
 30
0.0
 11
-16.08506739385288
 21
26.52430528747928
 31
0.0
  0
ARC
  5
5AF
330
1F
100
AcDbEntity
  8
0
100
AcDbCircle
 10
-18.96006739385288
 20
26.83680528747928
 30
0.0
 40
0.25
100
AcDbArc
 50
90.0
 51
180.0
  0
LINE
  5
5B0
330
1F
100
AcDbEntity
  8
0
100
AcDbLine
 10
-19.39756739385288
 20
27.27430528747928
 30
0.0
 11
-18.96006739385288
 21
27.27430528747928
 31
0.0
  0
ARC
  5
5B1
330
1F
100
AcDbEntity
  8
0
100
AcDbCircle
 10
-18.96006739385288
 20
26.83680528747928
 30
0.0
 40
0.4375
100
AcDbArc
 50
90.0
 51
180.0
  0
LINE
  5
5B2
330
1F
100
AcDbEntity
  8
0
100
AcDbLine
 10
126.9966688999705
 20
-7.725694712520748
 30
0.0
 11
92.49666889997049
 21
-7.725694712520748
 31
0.0
  0
INSERT
  5
5B3
330
1F
100
AcDbEntity
  8
0
100
AcDbBlockReference
  2
9 X 14 WINDOW
 10
16.97743260614705
 20
-55.72569471252075
 30
0.0
  0
INSERT
  5
5B4
330
1F
100
AcDbEntity
  8
0
100
AcDbBlockReference
  2
9 X 14 WINDOW
 10
16.22743260614707
 20
-55.72569471252075
 30
0.0
 41
-1.0
  0
INSERT
  5
5B5
102
{ACAD_REACTORS
330
5CB
102
}
330
1F
100
AcDbEntity
  8
0
100
AcDbBlockReference
  2
9 X 14 WINDOW
 10
92.49666889997049
 20
-55.72569471252075
 30
0.0
  0
LINE
  5
5B6
330
1F
100
AcDbEntity
  8
0
100
AcDbLine
 10
4.454875407985213
 20
-1.137150469883636
 30
0.0
 11
5.005306711083989
 21
-1.687581772982412
 31
0.0
  0
LINE
  5
5B7
330
1F
100
AcDbEntity
  8
0
100
AcDbLine
 10
4.032018264094006
 20
-0.3607399353991525
 30
0.0
 11
5.67235249842389
 21
-2.001074169729037
 31
0.0
  0
LINE
  5
5B8
330
1F
100
AcDbEntity
  8
0
100
AcDbLine
 10
4.808428798578489
 20
-0.7835970792903595
 30
0.0
 11
5.358860101677265
 21
-1.334028382389135
 31
0.0
  0
LINE
  5
5B9
330
1F
100
AcDbEntity
  8
0
100
AcDbLine
 10
9.430752709682792
 20
7.789103459392578
 30
0.0
 11
9.981184012781568
 21
7.238672156293802
 31
0.0
  0
LINE
  5
5BA
330
1F
100
AcDbEntity
  8
0
100
AcDbLine
 10
9.007895565791585
 20
8.565513993877061
 30
0.0
 11
10.64822980012147
 21
6.925179759547177
 31
0.0
  0
LINE
  5
5BB
330
1F
100
AcDbEntity
  8
0
100
AcDbLine
 10
9.784306100276069
 20
8.142656849985854
 30
0.0
 11
10.33473740337484
 21
7.592225546887078
 31
0.0
  0
LINE
  5
5BC
330
1F
100
AcDbEntity
  8
0
100
AcDbLine
 10
22.70487540798522
 20
-1.137150469883636
 30
0.0
 11
23.255306711084
 21
-1.687581772982412
 31
0.0
  0
LINE
  5
5BD
330
1F
100
AcDbEntity
  8
0
100
AcDbLine
 10
22.28201826409401
 20
-0.3607399353991525
 30
0.0
 11
23.9223524984239
 21
-2.001074169729037
 31
0.0
  0
LINE
  5
5BE
330
1F
100
AcDbEntity
  8
0
100
AcDbLine
 10
23.0584287985785
 20
-0.7835970792903595
 30
0.0
 11
23.60886010167727
 21
-1.334028382389135
 31
0.0
  0
LINE
  5
5BF
330
1F
100
AcDbEntity
  8
0
100
AcDbLine
 10
27.6807527096828
 20
7.789103459392578
 30
0.0
 11
28.23118401278158
 21
7.238672156293802
 31
0.0
  0
LINE
  5
5C0
330
1F
100
AcDbEntity
  8
0
100
AcDbLine
 10
27.25789556579159
 20
8.565513993877061
 30
0.0
 11
28.89822980012148
 21
6.925179759547177
 31
0.0
  0
LINE
  5
5C1
330
1F
100
AcDbEntity
  8
0
100
AcDbLine
 10
28.03430610027607
 20
8.142656849985854
 30
0.0
 11
28.58473740337485
 21
7.592225546887078
 31
0.0
  0
LINE
  5
5C2
330
1F
100
AcDbEntity
  8
0
100
AcDbLine
 10
98.22411170180869
 20
-1.137150469883636
 30
0.0
 11
98.77454300490747
 21
-1.687581772982412
 31
0.0
  0
LINE
  5
5C3
330
1F
100
AcDbEntity
  8
0
100
AcDbLine
 10
97.80125455791747
 20
-0.3607399353991525
 30
0.0
 11
99.44158879224737
 21
-2.001074169729037
 31
0.0
  0
LINE
  5
5C4
330
1F
100
AcDbEntity
  8
0
100
AcDbLine
 10
98.57766509240196
 20
-0.7835970792903595
 30
0.0
 11
99.12809639550074
 21
-1.334028382389135
 31
0.0
  0
LINE
  5
5C5
330
1F
100
AcDbEntity
  8
0
100
AcDbLine
 10
103.1999890035062
 20
7.789103459392578
 30
0.0
 11
103.750420306605
 21
7.238672156293802
 31
0.0
  0
LINE
  5
5C6
330
1F
100
AcDbEntity
  8
0
100
AcDbLine
 10
102.777131859615
 20
8.565513993877061
 30
0.0
 11
104.4174660939449
 21
6.925179759547177
 31
0.0
  0
LINE
  5
5C7
330
1F
100
AcDbEntity
  8
0
100
AcDbLine
 10
103.5535423940995
 20
8.142656849985854
 30
0.0
 11
104.1039736971983
 21
7.592225546887078
 31
0.0
  0
DIMENSION
  5
5C8
330
1F
100
AcDbEntity
  8
0
100
AcDbDimension
  2
*D5
 10
-24.35913413722289
 20
3.274305287479258
 30
0.0
 11
-24.35913413722289
 21
-26.72569471252075
 31
0.0
 70
   160
 71
     5
 42
59.99999999999998
  3
Standard
100
AcDbAlignedDimension
 13
-19.39756739385294
 23
-56.72569471252072
 33
0.0
 14
2.97743260614704
 24
3.274305287479251
 34
0.0
 50
90.0
100
AcDbRotatedDimension
  0
DIMENSION
  5
5C9
102
{ACAD_XDICTIONARY
360
5CA
102
}
102
{ACAD_REACTORS
330
5CB
102
}
330
1F
100
AcDbEntity
  8
0
100
AcDbDimension
  2
*D6
 10
86.67173165976612
 20
3.274305287479253
 30
0.0
 11
86.67173165976612
 21
-26.72569471252073
 31
0.0
 70
    32
 71
     5
 42
60.0
  3
Standard
100
AcDbAlignedDimension
 13
92.1216688999705
 23
-56.72569471252074
 33
0.0
 14
96.74666889997052
 24
3.274305287479251
 34
0.0
 50
90.0
100
AcDbRotatedDimension
  0
ENDSEC
  0
SECTION
  2
OBJECTS
  0
DICTIONARY
  5
C
330
0
100
AcDbDictionary
281
     1
  3
ACAD_COLOR
350
73
  3
ACAD_GROUP
350
D
  3
ACAD_LAYOUT
350
1A
  3
ACAD_MATERIAL
350
72
  3
ACAD_MLINESTYLE
350
17
  3
ACAD_PLOTSETTINGS
350
19
  3
ACAD_PLOTSTYLENAME
350
E
  3
ACAD_TABLESTYLE
350
86
  3
ACDBHEADERROUNDTRIPXREC
350
5FE
  3
AcDbVariableDictionary
350
66
  0
DICTIONARY
  5
5CA
330
5C9
100
AcDbDictionary
280
     1
281
     1
  3
ACAD_DIMASSOC
360
5CB
  0
DICTIONARY
  5
73
102
{ACAD_REACTORS
330
C
102
}
330
C
100
AcDbDictionary
281
     1
  0
DICTIONARY
  5
D
102
{ACAD_REACTORS
330
C
102
}
330
C
100
AcDbDictionary
281
     1
  0
DICTIONARY
  5
1A
102
{ACAD_REACTORS
330
C
102
}
330
C
100
AcDbDictionary
281
     1
  3
Layout1
350
59
  3
Layout2
350
5E
  3
Model
350
22
  0
DICTIONARY
  5
72
102
{ACAD_REACTORS
330
C
102
}
330
C
100
AcDbDictionary
281
     1
  0
DICTIONARY
  5
17
102
{ACAD_REACTORS
330
C
102
}
330
C
100
AcDbDictionary
281
     1
  3
Standard
350
18
  0
DICTIONARY
  5
19
102
{ACAD_REACTORS
330
C
102
}
330
C
100
AcDbDictionary
281
     1
  0
ACDBDICTIONARYWDFLT
  5
E
102
{ACAD_REACTORS
330
C
102
}
330
C
100
AcDbDictionary
281
     1
  3
Normal
350
F
100
AcDbDictionaryWithDefault
340
F
  0
DICTIONARY
  5
86
102
{ACAD_REACTORS
330
C
102
}
330
C
100
AcDbDictionary
281
     1
  3
Standard
350
87
  0
DICTIONARY
  5
5FE
102
{ACAD_REACTORS
330
C
102
}
330
C
100
AcDbDictionary
281
     1
  0
DICTIONARY
  5
66
102
{ACAD_REACTORS
330
C
102
}
330
C
100
AcDbDictionary
281
     1
  3
CTABLESTYLE
350
47D
  3
DIMASSOC
350
67
  3
HIDETEXT
350
6B
  3
PROJECTNAME
350
5F8
  0
DIMASSOC
  5
5CB
102
{ACAD_REACTORS
330
5CA
102
}
330
5CA
100
AcDbDimAssoc
330
5C9
 90
        3
 70
     0
 71
     0
  1
AcDbOsnapPointRef
 72
    13
331
54E
 73
     2
 91
        0
 40
0.0
 10
0.0
 20
0.0
 30
2.000000000000000E+50
 75
     0
  1
AcDbOsnapPointRef
 72
     2
331
5B5
331
495
 73
     2
 91
        0
 40
0.5
 10
0.0
 20
0.0
 30
0.0
 75
     0
  0
LAYOUT
  5
59
102
{ACAD_XDICTIONARY
360
601
102
}
102
{ACAD_REACTORS
330
1A
102
}
330
1A
100
AcDbPlotSettings
  1

  2
None
  4

  6

 40
0.0
 41
0.0
 42
0.0
 43
0.0
 44
0.0
 45
0.0
 46
0.0
 47
0.0
 48
0.0
 49
0.0
140
0.0
141
0.0
142
1.0
143
1.0
 70
   688
 72
     0
 73
     0
 74
     5
  7

 75
    16
147
1.0
148
0.0
149
0.0
100
AcDbLayout
  1
Layout1
 70
     1
 71
     1
 10
0.0
 20
0.0
 11
12.0
 21
9.0
 12
0.0
 22
0.0
 32
0.0
 14
0.0
 24
0.0
 34
0.0
 15
0.0
 25
0.0
 35
0.0
146
0.0
 13
0.0
 23
0.0
 33
0.0
 16
1.0
 26
0.0
 36
0.0
 17
0.0
 27
1.0
 37
0.0
 76
     0
330
58
  0
LAYOUT
  5
5E
102
{ACAD_XDICTIONARY
360
603
102
}
102
{ACAD_REACTORS
330
1A
102
}
330
1A
100
AcDbPlotSettings
  1

  2
None
  4

  6

 40
0.0
 41
0.0
 42
0.0
 43
0.0
 44
0.0
 45
0.0
 46
0.0
 47
0.0
 48
0.0
 49
0.0
140
0.0
141
0.0
142
1.0
143
1.0
 70
   688
 72
     0
 73
     0
 74
     5
  7

 75
    16
147
1.0
148
0.0
149
0.0
100
AcDbLayout
  1
Layout2
 70
     1
 71
     2
 10
0.0
 20
0.0
 11
12.0
 21
9.0
 12
0.0
 22
0.0
 32
0.0
 14
0.0
 24
0.0
 34
0.0
 15
0.0
 25
0.0
 35
0.0
146
0.0
 13
0.0
 23
0.0
 33
0.0
 16
1.0
 26
0.0
 36
0.0
 17
0.0
 27
1.0
 37
0.0
 76
     0
330
5D
  0
LAYOUT
  5
22
102
{ACAD_XDICTIONARY
360
5FF
102
}
102
{ACAD_REACTORS
330
1A
102
}
330
1A
100
AcDbPlotSettings
  1

  2
none_device
  4
ANSI_A_(8.50_x_11.00_Inches)
  6

 40
6.349999904632568
 41
19.04999923706055
 42
6.350006103515625
 43
19.04998779296875
 44
215.8999938964844
 45
279.3999938964844
 46
0.0
 47
0.0
 48
0.0
 49
0.0
140
0.0
141
0.0
142
1.0
143
2.584895464708373
 70
 11952
 72
     0
 73
     1
 74
     0
  7

 75
     0
147
0.3868628397755418
148
0.0
149
0.0
100
AcDbLayout
  1
Model
 70
     1
 71
     0
 10
0.0
 20
0.0
 11
12.0
 21
9.0
 12
0.0
 22
0.0
 32
0.0
 14
0.0
 24
0.0
 34
0.0
 15
0.0
 25
0.0
 35
0.0
146
0.0
 13
0.0
 23
0.0
 33
0.0
 16
1.0
 26
0.0
 36
0.0
 17
0.0
 27
1.0
 37
0.0
 76
     0
330
1F
  0
MLINESTYLE
  5
18
102
{ACAD_REACTORS
330
17
102
}
330
17
100
AcDbMlineStyle
  2
STANDARD
 70
     0
  3

 62
   256
 51
90.0
 52
90.0
 71
     2
 49
0.5
 62
   256
  6
BYLAYER
 49
-0.5
 62
   256
  6
BYLAYER
  0
ACDBPLACEHOLDER
  5
F
102
{ACAD_REACTORS
330
E
102
}
330
E
  0
TABLESTYLE
  5
87
102
{ACAD_REACTORS
330
86
102
}
330
86
100
AcDbTableStyle
  3
Standard
 70
     0
 71
     0
 40
0.06
 41
0.06
280
     0
281
     0
  7
Standard
140
0.18
170
     2
 62
     0
 63
     7
283
     0
274
    -2
284
     1
 64
     0
275
    -2
285
     1
 65
     0
276
    -2
286
     1
 66
     0
277
    -2
287
     1
 67
     0
278
    -2
288
     1
 68
     0
279
    -2
289
     1
 69
     0
  7
Standard
140
0.25
170
     5
 62
     0
 63
     7
283
     0
274
    -2
284
     1
 64
     0
275
    -2
285
     1
 65
     0
276
    -2
286
     1
 66
     0
277
    -2
287
     1
 67
     0
278
    -2
288
     1
 68
     0
279
    -2
289
     1
 69
     0
  7
Standard
140
0.18
170
     5
 62
     0
 63
     7
283
     0
274
    -2
284
     1
 64
     0
275
    -2
285
     1
 65
     0
276
    -2
286
     1
 66
     0
277
    -2
287
     1
 67
     0
278
    -2
288
     1
 68
     0
279
    -2
289
     1
 69
     0
  0
DICTIONARYVAR
  5
47D
102
{ACAD_REACTORS
330
66
102
}
330
66
100
DictionaryVariables
280
     0
  1
STANDARD
  0
DICTIONARYVAR
  5
67
102
{ACAD_REACTORS
330
66
102
}
330
66
100
DictionaryVariables
280
     0
  1
2
  0
DICTIONARYVAR
  5
6B
102
{ACAD_REACTORS
330
66
102
}
330
66
100
DictionaryVariables
280
     0
  1
1
  0
DICTIONARYVAR
  5
5F8
102
{ACAD_REACTORS
330
66
102
}
330
66
100
DictionaryVariables
280
     0
  1

  0
DICTIONARY
  5
601
330
59
100
AcDbDictionary
280
     1
281
     1
  3
ACAD_XREC_ROUNDTRIP
360
602
  0
DICTIONARY
  5
603
330
5E
100
AcDbDictionary
280
     1
281
     1
  3
ACAD_XREC_ROUNDTRIP
360
604
  0
DICTIONARY
  5
5FF
330
22
100
AcDbDictionary
280
     1
281
     1
  3
ACAD_XREC_ROUNDTRIP
360
600
  0
XRECORD
  5
602
102
{ACAD_REACTORS
330
601
102
}
330
601
100
AcDbXrecord
280
     1
102
SHADEPLOT
 70
     0
102
SHADEPLOTRESLEVEL
 70
     2
102
SHADEPLOTCUSTOMDPI
 70
   300
  0
XRECORD
  5
604
102
{ACAD_REACTORS
330
603
102
}
330
603
100
AcDbXrecord
280
     1
102
SHADEPLOT
 70
     0
102
SHADEPLOTRESLEVEL
 70
     2
102
SHADEPLOTCUSTOMDPI
 70
   300
  0
XRECORD
  5
600
102
{ACAD_REACTORS
330
5FF
102
}
330
5FF
100
AcDbXrecord
280
     1
102
SHADEPLOT
 70
     0
102
SHADEPLOTRESLEVEL
 70
     2
102
SHADEPLOTCUSTOMDPI
 70
   300
  0
ENDSEC
  0
EOF
