  0
SECTION
  2
HEADER
  9
$ACADVER
  1
AC1015
  9
$ACADMAINTVER
 70
    20
  9
$DWGCODEPAGE
  3
ANSI_1252
  9
$INSBASE
 10
0.0
 20
0.0
 30
0.0
  9
$EXTMIN
 10
-29.48342029938947
 20
-63.10560006300147
 30
0.0
  9
$EXTMAX
 10
143.1238034118401
 20
20.89439993699853
 30
0.0
  9
$LIMMIN
 10
0.0
 20
0.0
  9
$LIMMAX
 10
12.0
 20
9.0
  9
$ORTHOMODE
 70
     0
  9
$REGENMODE
 70
     1
  9
$FILLMODE
 70
     1
  9
$QTEXTMODE
 70
     0
  9
$MIRRTEXT
 70
     0
  9
$LTSCALE
 40
1.0
  9
$ATTMODE
 70
     1
  9
$TEXTSIZE
 40
0.2
  9
$TRACEWID
 40
0.05
  9
$TEXTSTYLE
  7
Standard
  9
$CLAYER
  8
0
  9
$CELTYPE
  6
ByLayer
  9
$CECOLOR
 62
   256
  9
$CELTSCALE
 40
1.0
  9
$DISPSILH
 70
     0
  9
$DIMSCALE
 40
10.0
  9
$DIMASZ
 40
0.18
  9
$DIMEXO
 40
0.0625
  9
$DIMDLI
 40
0.38
  9
$DIMRND
 40
0.0
  9
$DIMDLE
 40
0.0
  9
$DIMEXE
 40
0.18
  9
$DIMTP
 40
0.0
  9
$DIMTM
 40
0.0
  9
$DIMTXT
 40
0.18
  9
$DIMCEN
 40
0.09
  9
$DIMTSZ
 40
0.0
  9
$DIMTOL
 70
     0
  9
$DIMLIM
 70
     0
  9
$DIMTIH
 70
     1
  9
$DIMTOH
 70
     1
  9
$DIMSE1
 70
     0
  9
$DIMSE2
 70
     0
  9
$DIMTAD
 70
     0
  9
$DIMZIN
 70
     8
  9
$DIMBLK
  1

  9
$DIMASO
 70
     1
  9
$DIMSHO
 70
     1
  9
$DIMPOST
  1
"
  9
$DIMAPOST
  1

  9
$DIMALT
 70
     0
  9
$DIMALTD
 70
     2
  9
$DIMALTF
 40
25.4
  9
$DIMLFAC
 40
1.0
  9
$DIMTOFL
 70
     0
  9
$DIMTVP
 40
0.0
  9
$DIMTIX
 70
     0
  9
$DIMSOXD
 70
     0
  9
$DIMSAH
 70
     0
  9
$DIMBLK1
  1

  9
$DIMBLK2
  1

  9
$DIMSTYLE
  2
Standard
  9
$DIMCLRD
 70
     0
  9
$DIMCLRE
 70
     0
  9
$DIMCLRT
 70
     0
  9
$DIMTFAC
 40
1.0
  9
$DIMGAP
 40
0.09
  9
$DIMJUST
 70
     0
  9
$DIMSD1
 70
     0
  9
$DIMSD2
 70
     0
  9
$DIMTOLJ
 70
     1
  9
$DIMTZIN
 70
     0
  9
$DIMALTZ
 70
     0
  9
$DIMALTTZ
 70
     0
  9
$DIMUPT
 70
     0
  9
$DIMDEC
 70
     6
  9
$DIMTDEC
 70
     6
  9
$DIMALTU
 70
     2
  9
$DIMALTTD
 70
     2
  9
$DIMTXSTY
  7
Standard
  9
$DIMAUNIT
 70
     0
  9
$DIMADEC
 70
     0
  9
$DIMALTRND
 40
0.0
  9
$DIMAZIN
 70
     0
  9
$DIMDSEP
 70
    46
  9
$DIMATFIT
 70
     3
  9
$DIMFRAC
 70
     0
  9
$DIMLDRBLK
  1

  9
$DIMLUNIT
 70
     5
  9
$DIMLWD
 70
    -2
  9
$DIMLWE
 70
    -2
  9
$DIMTMOVE
 70
     0
  9
$LUNITS
 70
     2
  9
$LUPREC
 70
     4
  9
$SKETCHINC
 40
0.1
  9
$FILLETRAD
 40
2.25
  9
$AUNITS
 70
     0
  9
$AUPREC
 70
     0
  9
$MENU
  1
.
  9
$ELEVATION
 40
0.0
  9
$PELEVATION
 40
0.0
  9
$THICKNESS
 40
0.0
  9
$LIMCHECK
 70
     0
  9
$CHAMFERA
 40
0.0
  9
$CHAMFERB
 40
0.0
  9
$CHAMFERC
 40
0.0
  9
$CHAMFERD
 40
0.0
  9
$SKPOLY
 70
     0
  9
$TDCREATE
 40
2454288.567952500
  9
$TDUCREATE
 40
2454288.734619167
  9
$TDUPDATE
 40
2454288.574753762
  9
$TDUUPDATE
 40
2454288.741420429
  9
$TDINDWG
 40
0.0002663773
  9
$TDUSRTIMER
 40
0.0002663773
  9
$USRTIMER
 70
     1
  9
$ANGBASE
 50
0.0
  9
$ANGDIR
 70
     0
  9
$PDMODE
 70
     0
  9
$PDSIZE
 40
0.0
  9
$PLINEWID
 40
0.0
  9
$SPLFRAME
 70
     0
  9
$SPLINETYPE
 70
     6
  9
$SPLINESEGS
 70
     8
  9
$HANDSEED
  5
679
  9
$SURFTAB1
 70
     6
  9
$SURFTAB2
 70
     6
  9
$SURFTYPE
 70
     6
  9
$SURFU
 70
     6
  9
$SURFV
 70
     6
  9
$UCSBASE
  2

  9
$UCSNAME
  2

  9
$UCSORG
 10
0.0
 20
0.0
 30
0.0
  9
$UCSXDIR
 10
1.0
 20
0.0
 30
0.0
  9
$UCSYDIR
 10
0.0
 20
1.0
 30
0.0
  9
$UCSORTHOREF
  2

  9
$UCSORTHOVIEW
 70
     0
  9
$UCSORGTOP
 10
0.0
 20
0.0
 30
0.0
  9
$UCSORGBOTTOM
 10
0.0
 20
0.0
 30
0.0
  9
$UCSORGLEFT
 10
0.0
 20
0.0
 30
0.0
  9
$UCSORGRIGHT
 10
0.0
 20
0.0
 30
0.0
  9
$UCSORGFRONT
 10
0.0
 20
0.0
 30
0.0
  9
$UCSORGBACK
 10
0.0
 20
0.0
 30
0.0
  9
$PUCSBASE
  2

  9
$PUCSNAME
  2

  9
$PUCSORG
 10
0.0
 20
0.0
 30
0.0
  9
$PUCSXDIR
 10
1.0
 20
0.0
 30
0.0
  9
$PUCSYDIR
 10
0.0
 20
1.0
 30
0.0
  9
$PUCSORTHOREF
  2

  9
$PUCSORTHOVIEW
 70
     0
  9
$PUCSORGTOP
 10
0.0
 20
0.0
 30
0.0
  9
$PUCSORGBOTTOM
 10
0.0
 20
0.0
 30
0.0
  9
$PUCSORGLEFT
 10
0.0
 20
0.0
 30
0.0
  9
$PUCSORGRIGHT
 10
0.0
 20
0.0
 30
0.0
  9
$PUCSORGFRONT
 10
0.0
 20
0.0
 30
0.0
  9
$PUCSORGBACK
 10
0.0
 20
0.0
 30
0.0
  9
$USERI1
 70
     0
  9
$USERI2
 70
     0
  9
$USERI3
 70
     0
  9
$USERI4
 70
     0
  9
$USERI5
 70
     0
  9
$USERR1
 40
0.0
  9
$USERR2
 40
0.0
  9
$USERR3
 40
0.0
  9
$USERR4
 40
0.0
  9
$USERR5
 40
0.0
  9
$WORLDVIEW
 70
     1
  9
$SHADEDGE
 70
     3
  9
$SHADEDIF
 70
    70
  9
$TILEMODE
 70
     1
  9
$MAXACTVP
 70
    64
  9
$PINSBASE
 10
0.0
 20
0.0
 30
0.0
  9
$PLIMCHECK
 70
     0
  9
$PEXTMIN
 10
0.0
 20
0.0
 30
0.0
  9
$PEXTMAX
 10
0.0
 20
0.0
 30
0.0
  9
$PLIMMIN
 10
0.0
 20
0.0
  9
$PLIMMAX
 10
12.0
 20
9.0
  9
$UNITMODE
 70
     0
  9
$VISRETAIN
 70
     1
  9
$PLINEGEN
 70
     0
  9
$PSLTSCALE
 70
     1
  9
$TREEDEPTH
 70
  3020
  9
$CMLSTYLE
  2
Standard
  9
$CMLJUST
 70
     0
  9
$CMLSCALE
 40
1.0
  9
$PROXYGRAPHICS
 70
     1
  9
$MEASUREMENT
 70
     0
  9
$CELWEIGHT
370
    -1
  9
$ENDCAPS
280
     0
  9
$JOINSTYLE
280
     0
  9
$LWDISPLAY
290
     0
  9
$INSUNITS
 70
     1
  9
$HYPERLINKBASE
  1

  9
$STYLESHEET
  1

  9
$XEDIT
290
     1
  9
$CEPSNTYPE
380
     0
  9
$PSTYLEMODE
290
     1
  9
$FINGERPRINTGUID
  2
{8D7B6C22-E573-41E4-84BB-60AF254C6CA9}
  9
$VERSIONGUID
  2
{7CBBB6A0-E645-4CC1-9A67-B137A2DBB79B}
  9
$EXTNAMES
290
     1
  9
$PSVPSCALE
 40
0.0
  9
$OLESTARTUP
290
     0
  0
ENDSEC
  0
SECTION
  2
CLASSES
  0
CLASS
  1
ACDBDICTIONARYWDFLT
  2
AcDbDictionaryWithDefault
  3
ObjectDBX Classes
 90
        0
280
     0
281
     0
  0
CLASS
  1
ACDBPLACEHOLDER
  2
AcDbPlaceHolder
  3
ObjectDBX Classes
 90
        0
280
     0
281
     0
  0
CLASS
  1
LAYOUT
  2
AcDbLayout
  3
ObjectDBX Classes
 90
        0
280
     0
281
     0
  0
CLASS
  1
DICTIONARYVAR
  2
AcDbDictionaryVar
  3
ObjectDBX Classes
 90
        0
280
     0
281
     0
  0
CLASS
  1
TABLESTYLE
  2
AcDbTableStyle
  3
ObjectDBX Classes
 90
     2047
280
     0
281
     0
  0
CLASS
  1
SORTENTSTABLE
  2
AcDbSortentsTable
  3
ObjectDBX Classes
 90
    32768
280
     0
281
     0
  0
ENDSEC
  0
SECTION
  2
TABLES
  0
TABLE
  2
VPORT
  5
8
330
0
100
AcDbSymbolTable
 70
     2
  0
VPORT
  5
671
330
8
100
AcDbSymbolTableRecord
100
AcDbViewportTableRecord
  2
*Active
 70
     0
 10
0.0
 20
0.0
 11
1.0
 21
1.0
 12
49.18306919921514
 22
-19.34600599876047
 13
0.0
 23
0.0
 14
0.5
 24
0.5
 15
0.5
 25
0.5
 16
0.0
 26
0.0
 36
1.0
 17
0.0
 27
0.0
 37
0.0
 40
124.3263223469623
 41
1.554677206851119
 42
50.0
 43
0.0
 44
0.0
 50
0.0
 51
0.0
 71
     0
 72
  1000
 73
     1
 74
     0
 75
     0
 76
     0
 77
     0
 78
     0
281
     0
 65
     1
110
0.0
120
0.0
130
0.0
111
1.0
121
0.0
131
0.0
112
0.0
122
1.0
132
0.0
 79
     0
146
0.0
  0
ENDTAB
  0
TABLE
  2
LTYPE
  5
5
330
0
100
AcDbSymbolTable
 70
     1
  0
LTYPE
  5
14
330
5
100
AcDbSymbolTableRecord
100
AcDbLinetypeTableRecord
  2
ByBlock
 70
     0
  3

 72
    65
 73
     0
 40
0.0
  0
LTYPE
  5
15
330
5
100
AcDbSymbolTableRecord
100
AcDbLinetypeTableRecord
  2
ByLayer
 70
     0
  3

 72
    65
 73
     0
 40
0.0
  0
LTYPE
  5
16
330
5
100
AcDbSymbolTableRecord
100
AcDbLinetypeTableRecord
  2
Continuous
 70
     0
  3
Solid line
 72
    65
 73
     0
 40
0.0
  0
ENDTAB
  0
TABLE
  2
LAYER
  5
2
330
0
100
AcDbSymbolTable
 70
     2
  0
LAYER
  5
10
330
2
100
AcDbSymbolTableRecord
100
AcDbLayerTableRecord
  2
0
 70
     0
 62
     7
  6
Continuous
370
    -3
390
F
  0
LAYER
  5
4B1
330
2
100
AcDbSymbolTableRecord
100
AcDbLayerTableRecord
  2
Defpoints
 70
     0
 62
     7
  6
Continuous
290
     0
370
    -3
390
F
  0
ENDTAB
  0
TABLE
  2
STYLE
  5
3
330
0
100
AcDbSymbolTable
 70
     2
  0
STYLE
  5
11
330
3
100
AcDbSymbolTableRecord
100
AcDbTextStyleTableRecord
  2
Standard
 70
     0
 40
0.0
 41
1.0
 50
0.0
 71
     0
 42
0.2
  3
ARIAL.TTF
  4

1001
ACAD
1000
Arial
1071
       34
  0
STYLE
  5
45A
330
3
100
AcDbSymbolTableRecord
100
AcDbTextStyleTableRecord
  2
Text
 70
     0
 40
0.0
 41
1.0
 50
0.0
 71
     0
 42
0.09375
  3
TIMES.TTF
  4

1001
ACAD
1000
Times New Roman
1071
       18
  0
ENDTAB
  0
TABLE
  2
VIEW
  5
6
330
0
100
AcDbSymbolTable
 70
     0
  0
ENDTAB
  0
TABLE
  2
UCS
  5
7
330
0
100
AcDbSymbolTable
 70
     0
  0
ENDTAB
  0
TABLE
  2
APPID
  5
9
330
0
100
AcDbSymbolTable
 70
     9
  0
APPID
  5
12
330
9
100
AcDbSymbolTableRecord
100
AcDbRegAppTableRecord
  2
ACAD
 70
     0
  0
APPID
  5
8C
330
9
100
AcDbSymbolTableRecord
100
AcDbRegAppTableRecord
  2
ACAD_DSTYLE_DIMTEXT_FILL
 70
     0
  0
APPID
  5
8D
330
9
100
AcDbSymbolTableRecord
100
AcDbRegAppTableRecord
  2
ACAD_DSTYLE_DIMEXT_LENGTH
 70
     0
  0
APPID
  5
8E
330
9
100
AcDbSymbolTableRecord
100
AcDbRegAppTableRecord
  2
ACAD_DSTYLE_DIMEXT_ENABLED
 70
     0
  0
APPID
  5
8F
330
9
100
AcDbSymbolTableRecord
100
AcDbRegAppTableRecord
  2
ACAD_DSTYLE_DIM_LINETYPE
 70
     0
  0
APPID
  5
90
330
9
100
AcDbSymbolTableRecord
100
AcDbRegAppTableRecord
  2
ACAD_DSTYLE_DIM_EXT1_LINETYPE
 70
     0
  0
APPID
  5
91
330
9
100
AcDbSymbolTableRecord
100
AcDbRegAppTableRecord
  2
ACAD_DSTYLE_DIM_EXT2_LINETYPE
 70
     0
  0
APPID
  5
14D
330
9
100
AcDbSymbolTableRecord
100
AcDbRegAppTableRecord
  2
ACAD_DSTYLE_DIMJOGGED_JOGANGLE_SYMBOL
 70
     0
  0
APPID
  5
3F5
330
9
100
AcDbSymbolTableRecord
100
AcDbRegAppTableRecord
  2
ACAD_DSTYLE_DIMARC_LENGTH_SYMBOL
 70
     0
  0
ENDTAB
  0
TABLE
  2
DIMSTYLE
  5
A
330
0
100
AcDbSymbolTable
 70
     1
100
AcDbDimStyleTable
 71
     1
340
27
  0
DIMSTYLE
105
27
102
{ACAD_REACTORS
330
634
330
635
102
}
330
A
100
AcDbSymbolTableRecord
100
AcDbDimStyleTableRecord
  2
Standard
 70
     0
  3
"
 40
10.0
 78
     8
271
     6
272
     6
277
     5
340
11
1001
ACAD_DSTYLE_DIMEXT_LENGTH
1070
   378
1040
0.18
1001
ACAD_DSTYLE_DIMEXT_ENABLED
1070
   383
1070
     0
1001
ACAD_DSTYLE_DIMARC_LENGTH_SYMBOL
1070
   379
1070
     0
1001
ACAD_DSTYLE_DIMJOGGED_JOGANGLE_SYMBOL
1070
   384
1040
0.7853981633974483
  0
ENDTAB
  0
TABLE
  2
BLOCK_RECORD
  5
1
330
0
100
AcDbSymbolTable
 70
     7
  0
BLOCK_RECORD
  5
1F
330
1
100
AcDbSymbolTableRecord
100
AcDbBlockTableRecord
  2
*Model_Space
340
22
  0
BLOCK_RECORD
  5
58
330
1
100
AcDbSymbolTableRecord
100
AcDbBlockTableRecord
  2
*Paper_Space
340
59
  0
BLOCK_RECORD
  5
5D
330
1
100
AcDbSymbolTableRecord
100
AcDbBlockTableRecord
  2
*Paper_Space0
340
5E
  0
BLOCK_RECORD
  5
45B
330
1
100
AcDbSymbolTableRecord
100
AcDbBlockTableRecord
  2
STD HARDWARE
340
0
1001
ACAD
1000
DesignCenter Data
1002
{
1070
     1
1070
     1
1002
}
  0
BLOCK_RECORD
  5
483
330
1
100
AcDbSymbolTableRecord
100
AcDbBlockTableRecord
  2
9 X 14 WINDOW
340
0
102
{BLKREFS
331
5DD
331
5DE
331
5DF
102
}
1001
ACAD
1000
DesignCenter Data
1002
{
1070
     1
1070
     1
1002
}
  0
BLOCK_RECORD
  5
636
330
1
100
AcDbSymbolTableRecord
100
AcDbBlockTableRecord
  2
*D5
340
0
  0
BLOCK_RECORD
  5
643
330
1
100
AcDbSymbolTableRecord
100
AcDbBlockTableRecord
  2
*D6
340
0
  0
ENDTAB
  0
ENDSEC
  0
SECTION
  2
BLOCKS
  0
BLOCK
  5
20
330
1F
100
AcDbEntity
  8
0
100
AcDbBlockBegin
  2
*Model_Space
 70
     0
 10
0.0
 20
0.0
 30
0.0
  3
*Model_Space
  1

  0
ENDBLK
  5
21
330
1F
100
AcDbEntity
  8
0
100
AcDbBlockEnd
  0
BLOCK
  5
5A
330
58
100
AcDbEntity
 67
     1
  8
0
100
AcDbBlockBegin
  2
*Paper_Space
 70
     0
 10
0.0
 20
0.0
 30
0.0
  3
*Paper_Space
  1

  0
ENDBLK
  5
5B
330
58
100
AcDbEntity
 67
     1
  8
0
100
AcDbBlockEnd
  0
BLOCK
  5
5F
330
5D
100
AcDbEntity
 67
     1
  8
0
100
AcDbBlockBegin
  2
*Paper_Space0
 70
     0
 10
0.0
 20
0.0
 30
0.0
  3
*Paper_Space0
  1

  0
ENDBLK
  5
60
330
5D
100
AcDbEntity
 67
     1
  8
0
100
AcDbBlockEnd
  0
BLOCK
  5
478
330
45B
100
AcDbEntity
  8
0
100
AcDbBlockBegin
  2
STD HARDWARE
 70
     0
 10
0.0
 20
0.0
 30
0.0
  3
STD HARDWARE
  1

  0
LINE
  5
45C
330
45B
100
AcDbEntity
  8
0
100
AcDbLine
 10
82.12366255362965
 20
8.756831083884661
 30
0.0
 11
76.86625515496868
 21
8.756831083884661
 31
0.0
  0
TEXT
  5
45D
330
45B
100
AcDbEntity
  8
0
100
AcDbText
 10
77.99045541258468
 20
10.2831493526444
 30
0.0
 40
0.4775366748046875
  1
ELIASON
 50
0.0000000000016284
  7
Text
100
AcDbText
  0
LINE
  5
45E
330
45B
100
AcDbEntity
  8
0
100
AcDbLine
 10
68.84275595548828
 20
7.684993821821556
 30
0.0
 11
68.84275595548828
 21
11.9196923132278
 31
0.0
  0
LINE
  5
45F
330
45B
100
AcDbEntity
  8
0
100
AcDbLine
 10
69.00991510646488
 20
7.684993821821556
 30
0.0
 11
69.00991510646488
 21
11.9196923132278
 31
0.0
  0
LINE
  5
460
330
45B
100
AcDbEntity
  8
0
100
AcDbLine
 10
66.05677010587894
 20
7.462114953852811
 30
0.0
 11
68.61987708751954
 21
7.462114953852811
 31
0.0
  0
LINE
  5
461
330
45B
100
AcDbEntity
  8
0
100
AcDbLine
 10
66.05677010587894
 20
7.294955802876238
 30
0.0
 11
68.61987708751954
 21
7.294955802876238
 31
0.0
  0
CIRCLE
  5
462
330
45B
100
AcDbEntity
  8
0
100
AcDbCircle
 10
66.27964897384768
 20
8.576509293696553
 30
0.0
 40
0.1671591509765625
  0
LWPOLYLINE
  5
463
330
45B
100
AcDbEntity
  8
0
100
AcDbPolyline
 90
        4
 70
     1
 43
0.0
 10
67.61692218166027
 20
9.913782501509068
 10
64.94237576603532
 20
9.913782501509068
 10
64.94237576603532
 20
8.10745580287624
 10
67.61692218166027
 20
8.107455802876238
  0
LINE
  5
464
330
45B
100
AcDbEntity
  8
0
100
AcDbLine
 10
66.05677010587894
 20
7.294955802876238
 30
0.0
 11
66.05677010587894
 21
7.462114953852811
 31
0.0
  0
CIRCLE
  5
465
330
45B
100
AcDbEntity
  8
0
100
AcDbCircle
 10
65.3324137849805
 20
9.468024765571549
 30
0.0
 40
0.1671591509765625
  0
LWPOLYLINE
  5
466
330
45B
100
AcDbEntity
  8
0
100
AcDbPolyline
 90
        4
 70
     0
 43
0.0
 10
66.94828557775386
 20
8.107455802876238
 10
66.94828557775386
 20
7.462114953852811
 10
67.39404331369147
 20
7.462114953852811
 10
67.39404331369147
 20
8.107455802876238
  0
CIRCLE
  5
467
330
45B
100
AcDbEntity
  8
0
100
AcDbCircle
 10
67.22688416271487
 20
9.468024765571549
 30
0.0
 40
0.1671591509765625
  0
ARC
  5
468
330
45B
100
AcDbEntity
  8
0
100
AcDbCircle
 10
68.61987708751954
 20
7.684993821821556
 30
0.0
 40
0.3900380189453125
100
AcDbArc
 50
270.0
 51
0.0
  0
LINE
  5
469
330
45B
100
AcDbEntity
  8
0
100
AcDbLine
 10
68.61987708751954
 20
7.294955802876238
 30
0.0
 11
69.00991510646488
 21
7.294955802876238
 31
0.0
  0
ARC
  5
46A
330
45B
100
AcDbEntity
  8
0
100
AcDbCircle
 10
68.61987708751954
 20
7.684993821821556
 30
0.0
 40
0.22287886796875
100
AcDbArc
 50
270.0
 51
0.0
  0
LINE
  5
46B
330
45B
100
AcDbEntity
  8
0
100
AcDbLine
 10
68.84275595548828
 20
11.9196923132278
 30
0.0
 11
69.00991510646488
 21
11.9196923132278
 31
0.0
  0
LINE
  5
46C
330
45B
100
AcDbEntity
  8
0
100
AcDbLine
 10
76.86625515496868
 20
8.756831083884661
 30
0.0
 11
76.86625515496868
 21
12.50683108388466
 31
0.0
  0
LINE
  5
46D
330
45B
100
AcDbEntity
  8
0
100
AcDbLine
 10
83.43951374096471
 20
12.81933108388466
 30
0.0
 11
83.43951374096471
 21
9.256831083884662
 31
0.0
  0
LINE
  5
46E
330
45B
100
AcDbEntity
  8
0
100
AcDbLine
 10
82.12366255362965
 20
12.50683108388466
 30
0.0
 11
82.12366255362965
 21
8.756831083884661
 31
0.0
  0
LINE
  5
46F
330
45B
100
AcDbEntity
  8
0
100
AcDbLine
 10
83.62701374096472
 20
9.256831083884662
 30
0.0
 11
83.43951374096471
 21
9.256831083884662
 31
0.0
  0
LINE
  5
470
330
45B
100
AcDbEntity
  8
0
100
AcDbLine
 10
83.18951374096471
 20
13.06933108388466
 30
0.0
 11
78.37701374096472
 21
13.06933108388466
 31
0.0
  0
LINE
  5
471
330
45B
100
AcDbEntity
  8
0
100
AcDbLine
 10
83.18951374096471
 20
13.25683108388466
 30
0.0
 11
78.37701374096472
 21
13.25683108388466
 31
0.0
  0
LINE
  5
472
330
45B
100
AcDbEntity
  8
0
100
AcDbLine
 10
78.37701374096472
 20
13.06933108388466
 30
0.0
 11
78.37701374096472
 21
13.25683108388466
 31
0.0
  0
LINE
  5
473
330
45B
100
AcDbEntity
  8
0
100
AcDbLine
 10
79.43951374096471
 20
13.06933108388466
 30
0.0
 11
79.43951374096471
 21
12.50683108388466
 31
0.0
  0
LINE
  5
474
330
45B
100
AcDbEntity
  8
0
100
AcDbLine
 10
80.31451374096471
 20
13.06933108388466
 30
0.0
 11
80.31451374096471
 21
12.50683108388466
 31
0.0
  0
ARC
  5
475
330
45B
100
AcDbEntity
  8
0
100
AcDbCircle
 10
83.18951374096471
 20
12.81933108388466
 30
0.0
 40
0.25
100
AcDbArc
 50
0.0
 51
90.0
  0
LINE
  5
476
330
45B
100
AcDbEntity
  8
0
100
AcDbLine
 10
83.62701374096472
 20
13.25683108388466
 30
0.0
 11
83.18951374096471
 21
13.25683108388466
 31
0.0
  0
ARC
  5
477
330
45B
100
AcDbEntity
  8
0
100
AcDbCircle
 10
83.18951374096471
 20
12.81933108388466
 30
0.0
 40
0.4375
100
AcDbArc
 50
0.0
 51
90.0
  0
ENDBLK
  5
479
330
45B
100
AcDbEntity
  8
0
100
AcDbBlockEnd
  0
BLOCK
  5
484
330
483
100
AcDbEntity
  8
0
100
AcDbBlockBegin
  2
9 X 14 WINDOW
 70
     0
 10
0.0
 20
0.0
 30
0.0
  3
9 X 14 WINDOW
  1

  0
LINE
  5
485
330
483
100
AcDbEntity
  8
0
100
AcDbLine
 10
6.500000000000012
 20
66.0
 30
0.0
 11
11.00000000000001
 21
66.0
 31
0.0
  0
ARC
  5
486
330
483
100
AcDbEntity
  8
0
100
AcDbCircle
 10
6.500000000000009
 20
54.24999999999999
 30
0.0
 40
2.75
100
AcDbArc
 50
180.0
 51
270.0
  0
LINE
  5
487
330
483
100
AcDbEntity
  8
0
100
AcDbLine
 10
6.500000000000009
 20
51.49999999999999
 30
0.0
 11
11.00000000000001
 21
51.49999999999999
 31
0.0
  0
ARC
  5
488
330
483
100
AcDbEntity
  8
0
100
AcDbCircle
 10
11.00000000000001
 20
54.24999999999999
 30
0.0
 40
2.75
100
AcDbArc
 50
270.0
 51
0.0
  0
LINE
  5
489
330
483
100
AcDbEntity
  8
0
100
AcDbLine
 10
13.75000000000001
 20
54.24999999999999
 30
0.0
 11
13.75000000000001
 21
63.75
 31
0.0
  0
ARC
  5
48A
330
483
100
AcDbEntity
  8
0
100
AcDbCircle
 10
11.00000000000001
 20
63.75
 30
0.0
 40
2.75
100
AcDbArc
 50
0.0
 51
90.0
  0
LINE
  5
48B
330
483
100
AcDbEntity
  8
0
100
AcDbLine
 10
6.500000000000012
 20
66.5
 30
0.0
 11
11.00000000000001
 21
66.5
 31
0.0
  0
ARC
  5
48C
330
483
100
AcDbEntity
  8
0
100
AcDbCircle
 10
6.500000000000012
 20
63.75
 30
0.0
 40
2.75
100
AcDbArc
 50
90.0
 51
180.0
  0
LINE
  5
48D
330
483
100
AcDbEntity
  8
0
100
AcDbLine
 10
3.750000000000009
 20
54.24999999999999
 30
0.0
 11
3.750000000000012
 21
63.75
 31
0.0
  0
ARC
  5
48E
330
483
100
AcDbEntity
  8
0
100
AcDbCircle
 10
11.00000000000001
 20
54.24999999999999
 30
0.0
 40
2.25
100
AcDbArc
 50
270.0
 51
0.0
  0
ARC
  5
48F
330
483
100
AcDbEntity
  8
0
100
AcDbCircle
 10
11.00000000000001
 20
63.75
 30
0.0
 40
2.25
100
AcDbArc
 50
0.0
 51
90.0
  0
ARC
  5
490
330
483
100
AcDbEntity
  8
0
100
AcDbCircle
 10
6.500000000000012
 20
63.75
 30
0.0
 40
2.25
100
AcDbArc
 50
90.0
 51
180.0
  0
ARC
  5
491
330
483
100
AcDbEntity
  8
0
100
AcDbCircle
 10
6.500000000000009
 20
54.24999999999999
 30
0.0
 40
2.25
100
AcDbArc
 50
180.0
 51
270.0
  0
LINE
  5
492
330
483
100
AcDbEntity
  8
0
100
AcDbLine
 10
6.500000000000009
 20
51.99999999999999
 30
0.0
 11
11.00000000000001
 21
51.99999999999999
 31
0.0
  0
LINE
  5
493
330
483
100
AcDbEntity
  8
0
100
AcDbLine
 10
6.500000000000012
 20
66.0
 30
0.0
 11
11.00000000000001
 21
66.0
 31
0.0
  0
LINE
  5
494
330
483
100
AcDbEntity
  8
0
100
AcDbLine
 10
13.25000000000001
 20
54.24999999999999
 30
0.0
 11
13.25000000000001
 21
63.75
 31
0.0
  0
LINE
  5
495
330
483
100
AcDbEntity
  8
0
100
AcDbLine
 10
4.250000000000009
 20
54.24999999999999
 30
0.0
 11
4.250000000000012
 21
63.75
 31
0.0
  0
ENDBLK
  5
496
330
483
100
AcDbEntity
  8
0
100
AcDbBlockEnd
  0
BLOCK
  5
641
330
636
100
AcDbEntity
  8
0
100
AcDbBlockBegin
  2
*D5
 70
     1
 10
0.0
 20
0.0
 30
0.0
  3
*D5
  1

  0
LINE
  5
650
330
636
100
AcDbEntity
  8
0
 62
     0
370
    -2
100
AcDbLine
 10
-21.01900323378408
 20
-63.10560006300147
 30
0.0
 11
-28.76268360089017
 21
-63.10560006300147
 31
0.0
  0
LINE
  5
651
330
636
100
AcDbEntity
  8
0
 62
     0
370
    -2
100
AcDbLine
 10
1.355996766215923
 20
-3.355600063001475
 30
0.0
 11
-28.76268360089016
 21
-3.355600063001466
 31
0.0
  0
LINE
  5
652
330
636
100
AcDbEntity
  8
0
 62
     0
370
    -2
100
AcDbLine
 10
-26.96268360089017
 20
-61.30560006300147
 30
0.0
 11
-26.96268360089016
 21
-34.13060006300153
 31
0.0
  0
LINE
  5
653
330
636
100
AcDbEntity
  8
0
 62
     0
370
    -2
100
AcDbLine
 10
-26.96268360089016
 20
-5.155600063001466
 30
0.0
 11
-26.96268360089016
 21
-28.06061370556633
 31
0.0
  0
SOLID
  5
654
330
636
100
AcDbEntity
  8
0
 62
     0
100
AcDbTrace
 10
-27.26268360089017
 20
-61.30560006300147
 30
0.0
 11
-26.66268360089017
 21
-61.30560006300147
 31
0.0
 12
-26.96268360089017
 22
-63.10560006300147
 32
0.0
 13
-26.96268360089017
 23
-63.10560006300147
 33
0.0
  0
SOLID
  5
655
330
636
100
AcDbEntity
  8
0
 62
     0
100
AcDbTrace
 10
-27.26268360089016
 20
-5.155600063001466
 30
0.0
 11
-26.66268360089016
 21
-5.155600063001466
 31
0.0
 12
-26.96268360089016
 22
-3.355600063001467
 32
0.0
 13
-26.96268360089016
 23
-3.355600063001467
 33
0.0
  0
MTEXT
  5
656
330
636
100
AcDbEntity
  8
0
 62
     0
100
AcDbMText
 10
-26.96268360089016
 20
-31.09560688428394
 30
0.0
 40
1.799999999999999
 41
0.0
 71
     5
 72
     1
  1
\A1;59{\H1.000000x;\S3/4;}"
 73
     1
 44
1.0
1001
ACAD
1000
MTEXTBEGIN
1070
    73
1070
     1
1070
    44
1040
1.0
1070
    74
1070
     0
1000
MTEXTEND
  0
POINT
  5
657
330
636
100
AcDbEntity
  8
Defpoints
 62
     0
100
AcDbPoint
 10
-20.39400323378408
 20
-63.10560006300147
 30
0.0
  0
POINT
  5
658
330
636
100
AcDbEntity
  8
Defpoints
 62
     0
100
AcDbPoint
 10
1.980996766215923
 20
-3.355600063001475
 30
0.0
  0
POINT
  5
659
330
636
100
AcDbEntity
  8
Defpoints
 62
     0
100
AcDbPoint
 10
-26.96268360089016
 20
-3.355600063001467
 30
0.0
  0
ENDBLK
  5
642
330
636
100
AcDbEntity
  8
0
100
AcDbBlockEnd
  0
BLOCK
  5
64E
330
643
100
AcDbEntity
  8
0
100
AcDbBlockBegin
  2
*D6
 70
     1
 10
0.0
 20
0.0
 30
0.0
  3
*D6
  1

  0
LINE
  5
65A
330
643
100
AcDbEntity
  8
0
 62
     0
370
    -2
100
AcDbLine
 10
106.4988034118401
 20
-63.10560006300147
 30
0.0
 11
98.75512304473403
 21
-63.10560006300147
 31
0.0
  0
LINE
  5
65B
330
643
100
AcDbEntity
  8
0
 62
     0
370
    -2
100
AcDbLine
 10
111.1238034118401
 20
-3.355600063001475
 30
0.0
 11
98.75512304473405
 21
-3.355600063001471
 31
0.0
  0
LINE
  5
65C
330
643
100
AcDbEntity
  8
0
 62
     0
370
    -2
100
AcDbLine
 10
100.555123044734
 20
-61.30560006300147
 30
0.0
 11
100.555123044734
 21
-34.13060006300155
 31
0.0
  0
LINE
  5
65D
330
643
100
AcDbEntity
  8
0
 62
     0
370
    -2
100
AcDbLine
 10
100.555123044734
 20
-5.155600063001471
 30
0.0
 11
100.555123044734
 21
-28.06061370556636
 31
0.0
  0
SOLID
  5
65E
330
643
100
AcDbEntity
  8
0
 62
     0
100
AcDbTrace
 10
100.255123044734
 20
-61.30560006300147
 30
0.0
 11
100.855123044734
 21
-61.30560006300147
 31
0.0
 12
100.555123044734
 22
-63.10560006300147
 32
0.0
 13
100.555123044734
 23
-63.10560006300147
 33
0.0
  0
SOLID
  5
65F
330
643
100
AcDbEntity
  8
0
 62
     0
100
AcDbTrace
 10
100.255123044734
 20
-5.155600063001471
 30
0.0
 11
100.855123044734
 21
-5.155600063001471
 31
0.0
 12
100.555123044734
 22
-3.355600063001471
 32
0.0
 13
100.555123044734
 23
-3.355600063001471
 33
0.0
  0
MTEXT
  5
660
330
643
100
AcDbEntity
  8
0
 62
     0
100
AcDbMText
 10
100.555123044734
 20
-31.09560688428394
 30
0.0
 40
1.799999999999999
 41
0.0
 71
     5
 72
     1
  1
\A1;59{\H1.000000x;\S3/4;}"
 73
     1
 44
1.0
1001
ACAD
1000
MTEXTBEGIN
1070
    73
1070
     1
1070
    44
1040
1.0
1070
    74
1070
     0
1000
MTEXTEND
  0
POINT
  5
661
330
643
100
AcDbEntity
  8
Defpoints
 62
     0
100
AcDbPoint
 10
107.1238034118401
 20
-63.10560006300147
 30
0.0
  0
POINT
  5
662
330
643
100
AcDbEntity
  8
Defpoints
 62
     0
100
AcDbPoint
 10
111.7488034118401
 20
-3.355600063001475
 30
0.0
  0
POINT
  5
663
330
643
100
AcDbEntity
  8
Defpoints
 62
     0
100
AcDbPoint
 10
100.555123044734
 20
-3.355600063001471
 30
0.0
  0
ENDBLK
  5
64F
330
643
100
AcDbEntity
  8
0
100
AcDbBlockEnd
  0
ENDSEC
  0
SECTION
  2
ENTITIES
  0
LINE
  5
577
330
1F
100
AcDbEntity
  8
0
100
AcDbLine
 10
-20.39400323378408
 20
20.89439993699853
 30
0.0
 11
51.60599676621592
 21
20.89439993699853
 31
0.0
  0
LINE
  5
578
330
1F
100
AcDbEntity
  8
0
100
AcDbLine
 10
51.60599676621592
 20
20.89439993699853
 30
0.0
 11
51.60599676621592
 21
-63.10560006300147
 31
0.0
  0
LINE
  5
579
330
1F
100
AcDbEntity
  8
0
100
AcDbLine
 10
51.60599676621592
 20
-63.10560006300147
 30
0.0
 11
-20.39400323378408
 21
-63.10560006300147
 31
0.0
  0
LINE
  5
57A
330
1F
100
AcDbEntity
  8
0
100
AcDbLine
 10
-20.39400323378408
 20
-63.10560006300147
 30
0.0
 11
-20.39400323378408
 21
20.89439993699853
 31
0.0
  0
LINE
  5
57B
330
1F
100
AcDbEntity
  8
0
100
AcDbLine
 10
107.1238034118401
 20
20.89439993699853
 30
0.0
 11
143.1238034118401
 21
20.89439993699853
 31
0.0
  0
LINE
  5
57C
330
1F
100
AcDbEntity
  8
0
100
AcDbLine
 10
107.4988034118401
 20
20.14439993699852
 30
0.0
 11
142.7488034118401
 21
20.14439993699852
 31
0.0
  0
LINE
  5
57D
330
1F
100
AcDbEntity
  8
0
100
AcDbLine
 10
143.1238034118401
 20
20.89439993699853
 30
0.0
 11
143.1238034118401
 21
-63.10560006300147
 31
0.0
  0
LINE
  5
57E
330
1F
100
AcDbEntity
  8
0
100
AcDbLine
 10
142.7488034118401
 20
20.14439993699852
 30
0.0
 11
142.7488034118401
 21
-53.35560006300148
 31
0.0
  0
LINE
  5
57F
330
1F
100
AcDbEntity
  8
0
100
AcDbLine
 10
141.8113034118401
 20
20.14439993699852
 30
0.0
 11
141.8113034118401
 21
-30.98069840400331
 31
0.0
  0
LINE
  5
580
330
1F
100
AcDbEntity
  8
0
100
AcDbLine
 10
141.8113034118401
 20
-30.98069840400331
 30
0.0
 11
141.8113034118401
 21
-53.35560006300148
 31
0.0
  0
LINE
  5
581
330
1F
100
AcDbEntity
  8
0
100
AcDbLine
 10
143.1238034118401
 20
-63.10560006300147
 30
0.0
 11
107.1238034118401
 21
-63.10560006300147
 31
0.0
  0
LINE
  5
582
330
1F
100
AcDbEntity
  8
0
100
AcDbLine
 10
139.7488034118401
 20
-62.35560006300147
 30
0.0
 11
107.4988034118401
 21
-62.35560006300147
 31
0.0
  0
LINE
  5
583
330
1F
100
AcDbEntity
  8
0
100
AcDbLine
 10
141.8113034118401
 20
-32.35560006300147
 30
0.0
 11
107.4988034118401
 21
-32.35560006300147
 31
0.0
  0
LINE
  5
584
330
1F
100
AcDbEntity
  8
0
100
AcDbLine
 10
107.1238034118401
 20
-63.10560006300147
 30
0.0
 11
107.1238034118401
 21
20.89439993699853
 31
0.0
  0
LINE
  5
585
330
1F
100
AcDbEntity
  8
0
100
AcDbLine
 10
107.4988034118401
 20
-62.35560006300147
 30
0.0
 11
107.4988034118401
 21
20.14439993699852
 31
0.0
  0
LINE
  5
586
330
1F
100
AcDbEntity
  8
0
100
AcDbLine
 10
108.4363034118401
 20
-62.35560006300147
 30
0.0
 11
108.4363034118401
 21
-30.98069840400331
 31
0.0
  0
LINE
  5
587
330
1F
100
AcDbEntity
  8
0
100
AcDbLine
 10
108.4363034118401
 20
-30.98069840400331
 30
0.0
 11
108.4363034118401
 21
20.14439993699852
 31
0.0
  0
LINE
  5
588
330
1F
100
AcDbEntity
  8
0
100
AcDbLine
 10
15.98099676621592
 20
20.14439993699852
 30
0.0
 11
51.23099676621592
 21
20.14439993699852
 31
0.0
  0
LINE
  5
589
330
1F
100
AcDbEntity
  8
0
100
AcDbLine
 10
51.23099676621592
 20
20.14439993699852
 30
0.0
 11
51.23099676621592
 21
-53.35560006300148
 31
0.0
  0
LINE
  5
58A
330
1F
100
AcDbEntity
  8
0
100
AcDbLine
 10
50.29349676621592
 20
20.14439993699852
 30
0.0
 11
50.29349676621592
 21
-30.98069840400319
 31
0.0
  0
LINE
  5
58B
330
1F
100
AcDbEntity
  8
0
100
AcDbLine
 10
50.29349676621592
 20
-30.98069840400319
 30
0.0
 11
50.29349676621592
 21
-53.35560006300148
 31
0.0
  0
LINE
  5
58C
330
1F
100
AcDbEntity
  8
0
100
AcDbLine
 10
48.23099676621592
 20
-62.35560006300147
 30
0.0
 11
15.98099676621592
 21
-62.35560006300147
 31
0.0
  0
LINE
  5
58D
330
1F
100
AcDbEntity
  8
0
100
AcDbLine
 10
50.29349676621592
 20
-32.35560006300147
 30
0.0
 11
15.98099676621592
 21
-32.35560006300147
 31
0.0
  0
LINE
  5
58E
330
1F
100
AcDbEntity
  8
0
100
AcDbLine
 10
15.98099676621592
 20
-62.35560006300147
 30
0.0
 11
15.98099676621592
 21
20.14439993699852
 31
0.0
  0
LINE
  5
58F
330
1F
100
AcDbEntity
  8
0
100
AcDbLine
 10
16.91849676621592
 20
-62.35560006300147
 30
0.0
 11
16.91849676621592
 21
-30.98069840400319
 31
0.0
  0
LINE
  5
590
330
1F
100
AcDbEntity
  8
0
100
AcDbLine
 10
16.91849676621592
 20
-30.98069840400319
 30
0.0
 11
16.91849676621592
 21
20.14439993699852
 31
0.0
  0
LINE
  5
591
330
1F
100
AcDbEntity
  8
0
100
AcDbLine
 10
15.23099676621598
 20
20.14439993699852
 30
0.0
 11
-20.01900323378402
 21
20.14439993699858
 31
0.0
  0
LINE
  5
592
330
1F
100
AcDbEntity
  8
0
100
AcDbLine
 10
-20.01900323378402
 20
20.14439993699858
 30
0.0
 11
-20.01900323378408
 21
-53.35560006300148
 31
0.0
  0
LINE
  5
593
330
1F
100
AcDbEntity
  8
0
100
AcDbLine
 10
-19.08150323378402
 20
20.14439993699858
 30
0.0
 11
-19.08150323378407
 21
-53.35560006300148
 31
0.0
  0
LINE
  5
594
330
1F
100
AcDbEntity
  8
0
100
AcDbLine
 10
-17.01900323378407
 20
-62.35560006300147
 30
0.0
 11
15.23099676621592
 21
-62.35560006300147
 31
0.0
  0
LINE
  5
595
330
1F
100
AcDbEntity
  8
0
100
AcDbLine
 10
-19.08150323378407
 20
-32.35560006300147
 30
0.0
 11
15.23099676621592
 21
-32.35560006300147
 31
0.0
  0
LINE
  5
596
330
1F
100
AcDbEntity
  8
0
100
AcDbLine
 10
15.23099676621592
 20
-62.35560006300147
 30
0.0
 11
15.23099676621598
 21
20.14439993699852
 31
0.0
  0
LINE
  5
597
330
1F
100
AcDbEntity
  8
0
100
AcDbLine
 10
14.29349676621592
 20
-62.35560006300147
 30
0.0
 11
14.29349676621598
 21
20.14439993699852
 31
0.0
  0
LINE
  5
598
330
1F
100
AcDbEntity
  8
0
100
AcDbLine
 10
50.10264557888087
 20
18.2919773088426
 30
0.0
 11
45.32887500623707
 21
18.2919773088426
 31
0.0
  0
LINE
  5
599
330
1F
100
AcDbEntity
  8
0
100
AcDbLine
 10
49.72764557888087
 20
17.2919773088426
 30
0.0
 11
45.70387500623707
 21
17.2919773088426
 31
0.0
  0
ARC
  5
59A
330
1F
100
AcDbEntity
  8
0
100
AcDbCircle
 10
49.72764557888087
 20
17.6669773088426
 30
0.0
 40
0.375
100
AcDbArc
 50
270.0
 51
0.0
  0
ARC
  5
59B
330
1F
100
AcDbEntity
  8
0
100
AcDbCircle
 10
45.70387500623707
 20
17.6669773088426
 30
0.0
 40
0.375
100
AcDbArc
 50
180.0
 51
270.0
  0
TEXT
  5
59C
330
1F
100
AcDbEntity
  8
0
100
AcDbText
 10
46.1451761458025
 20
18.76710106613996
 30
0.0
 40
0.4775366748046875
  1
ELIASON
 50
0.0000000000016284
  7
Text
100
AcDbText
  0
LINE
  5
59D
330
1F
100
AcDbEntity
  8
0
100
AcDbLine
 10
45.32887500623707
 20
18.2919773088426
 30
0.0
 11
45.32887500623707
 21
20.14439993699852
 31
0.0
  0
LINE
  5
59E
330
1F
100
AcDbEntity
  8
0
100
AcDbLine
 10
51.41849676621593
 20
20.45689993699852
 30
0.0
 11
51.41849676621593
 21
16.89439993699852
 31
0.0
  0
LINE
  5
59F
330
1F
100
AcDbEntity
  8
0
100
AcDbLine
 10
50.10264557888087
 20
20.14439993699852
 30
0.0
 11
50.10264557888087
 21
18.2919773088426
 31
0.0
  0
LINE
  5
5A0
330
1F
100
AcDbEntity
  8
0
100
AcDbLine
 10
51.60599676621592
 20
16.89439993699852
 30
0.0
 11
51.41849676621593
 21
16.89439993699852
 31
0.0
  0
LINE
  5
5A1
330
1F
100
AcDbEntity
  8
0
100
AcDbLine
 10
51.16849676621592
 20
20.70689993699852
 30
0.0
 11
46.35599676621592
 21
20.70689993699852
 31
0.0
  0
LINE
  5
5A2
330
1F
100
AcDbEntity
  8
0
100
AcDbLine
 10
51.16849676621592
 20
20.89439993699853
 30
0.0
 11
46.35599676621592
 21
20.89439993699853
 31
0.0
  0
LINE
  5
5A3
330
1F
100
AcDbEntity
  8
0
100
AcDbLine
 10
46.35599676621592
 20
20.70689993699852
 30
0.0
 11
46.35599676621592
 21
20.89439993699853
 31
0.0
  0
LINE
  5
5A4
330
1F
100
AcDbEntity
  8
0
100
AcDbLine
 10
47.41849676621592
 20
20.70689993699852
 30
0.0
 11
47.41849676621592
 21
20.14439993699852
 31
0.0
  0
LINE
  5
5A5
330
1F
100
AcDbEntity
  8
0
100
AcDbLine
 10
48.29349676621593
 20
20.70689993699852
 30
0.0
 11
48.29349676621593
 21
20.14439993699852
 31
0.0
  0
ARC
  5
5A6
330
1F
100
AcDbEntity
  8
0
100
AcDbCircle
 10
51.16849676621592
 20
20.45689993699852
 30
0.0
 40
0.25
100
AcDbArc
 50
0.0
 51
90.0
  0
LINE
  5
5A7
330
1F
100
AcDbEntity
  8
0
100
AcDbLine
 10
51.60599676621592
 20
20.89439993699853
 30
0.0
 11
51.16849676621592
 21
20.89439993699853
 31
0.0
  0
ARC
  5
5A8
330
1F
100
AcDbEntity
  8
0
100
AcDbCircle
 10
51.16849676621592
 20
20.45689993699852
 30
0.0
 40
0.4375
100
AcDbArc
 50
0.0
 51
90.0
  0
LINE
  5
5A9
330
1F
100
AcDbEntity
  8
0
100
AcDbLine
 10
45.32887500623707
 20
18.2919773088426
 30
0.0
 11
45.32887500623707
 21
17.6669773088426
 31
0.0
  0
LINE
  5
5AA
330
1F
100
AcDbEntity
  8
0
100
AcDbLine
 10
50.10264557888087
 20
18.2919773088426
 30
0.0
 11
50.10264557888087
 21
17.6669773088426
 31
0.0
  0
CIRCLE
  5
5AB
330
1F
100
AcDbEntity
  8
0
100
AcDbCircle
 10
45.70387500623707
 20
17.6669773088426
 30
0.0
 40
0.2020193274896229
  0
CIRCLE
  5
5AC
330
1F
100
AcDbEntity
  8
0
100
AcDbCircle
 10
49.72764557888087
 20
17.6669773088426
 30
0.0
 40
0.2020193274896229
  0
CIRCLE
  5
5AD
330
1F
100
AcDbEntity
  8
0
100
AcDbCircle
 10
48.71071043837429
 20
17.90741016508912
 30
0.0
 40
0.0940791681753126
  0
CIRCLE
  5
5AE
330
1F
100
AcDbEntity
  8
0
100
AcDbCircle
 10
46.72081014674358
 20
17.90741016508912
 30
0.0
 40
0.0940791681753126
  0
LINE
  5
5AF
330
1F
100
AcDbEntity
  8
0
100
AcDbLine
 10
-18.89065204644902
 20
18.2919773088426
 30
0.0
 11
-14.11688147380516
 21
18.2919773088426
 31
0.0
  0
LINE
  5
5B0
330
1F
100
AcDbEntity
  8
0
100
AcDbLine
 10
-18.51565204644896
 20
17.2919773088426
 30
0.0
 11
-14.49188147380516
 21
17.2919773088426
 31
0.0
  0
ARC
  5
5B1
330
1F
100
AcDbEntity
  8
0
100
AcDbCircle
 10
-18.51565204644896
 20
17.6669773088426
 30
0.0
 40
0.3749999999999999
100
AcDbArc
 50
179.9999999999935
 51
270.0
  0
ARC
  5
5B2
330
1F
100
AcDbEntity
  8
0
100
AcDbCircle
 10
-14.49188147380516
 20
17.6669773088426
 30
0.0
 40
0.3749999999999999
100
AcDbArc
 50
270.0
 51
0.0
  0
TEXT
  5
5B3
330
1F
100
AcDbEntity
  8
0
100
AcDbText
 10
-17.95367954780573
 20
18.76710106614001
 30
0.0
 40
0.4775366748046874
  1
ELIASON
 50
359.9999999999984
  7
Text
100
AcDbText
  0
LINE
  5
5B4
330
1F
100
AcDbEntity
  8
0
100
AcDbLine
 10
-14.11688147380516
 20
18.2919773088426
 30
0.0
 11
-14.11688147380522
 21
20.14439993699852
 31
0.0
  0
LINE
  5
5B5
330
1F
100
AcDbEntity
  8
0
100
AcDbLine
 10
-20.20650323378408
 20
20.45689993699852
 30
0.0
 11
-20.20650323378408
 21
16.89439993699852
 31
0.0
  0
LINE
  5
5B6
330
1F
100
AcDbEntity
  8
0
100
AcDbLine
 10
-18.89065204644902
 20
20.14439993699852
 30
0.0
 11
-18.89065204644896
 21
18.2919773088426
 31
0.0
  0
LINE
  5
5B7
330
1F
100
AcDbEntity
  8
0
100
AcDbLine
 10
-20.39400323378408
 20
16.89439993699852
 30
0.0
 11
-20.20650323378408
 21
16.89439993699852
 31
0.0
  0
LINE
  5
5B8
330
1F
100
AcDbEntity
  8
0
100
AcDbLine
 10
-19.95650323378407
 20
20.70689993699852
 30
0.0
 11
-15.14400323378407
 21
20.70689993699852
 31
0.0
  0
LINE
  5
5B9
330
1F
100
AcDbEntity
  8
0
100
AcDbLine
 10
-19.95650323378407
 20
20.89439993699853
 30
0.0
 11
-15.14400323378407
 21
20.89439993699853
 31
0.0
  0
LINE
  5
5BA
330
1F
100
AcDbEntity
  8
0
100
AcDbLine
 10
-15.14400323378407
 20
20.70689993699852
 30
0.0
 11
-15.14400323378407
 21
20.89439993699853
 31
0.0
  0
LINE
  5
5BB
330
1F
100
AcDbEntity
  8
0
100
AcDbLine
 10
-16.20650323378407
 20
20.70689993699852
 30
0.0
 11
-16.20650323378407
 21
20.14439993699852
 31
0.0
  0
LINE
  5
5BC
330
1F
100
AcDbEntity
  8
0
100
AcDbLine
 10
-17.08150323378407
 20
20.70689993699852
 30
0.0
 11
-17.08150323378407
 21
20.14439993699852
 31
0.0
  0
ARC
  5
5BD
330
1F
100
AcDbEntity
  8
0
100
AcDbCircle
 10
-19.95650323378407
 20
20.45689993699852
 30
0.0
 40
0.25
100
AcDbArc
 50
90.0
 51
180.0
  0
LINE
  5
5BE
330
1F
100
AcDbEntity
  8
0
100
AcDbLine
 10
-20.39400323378408
 20
20.89439993699853
 30
0.0
 11
-19.95650323378407
 21
20.89439993699853
 31
0.0
  0
ARC
  5
5BF
330
1F
100
AcDbEntity
  8
0
100
AcDbCircle
 10
-19.95650323378407
 20
20.45689993699852
 30
0.0
 40
0.4375
100
AcDbArc
 50
90.0
 51
180.0
  0
LINE
  5
5C0
330
1F
100
AcDbEntity
  8
0
100
AcDbLine
 10
-14.11688147380516
 20
18.2919773088426
 30
0.0
 11
-14.11688147380516
 21
17.6669773088426
 31
0.0
  0
LINE
  5
5C1
330
1F
100
AcDbEntity
  8
0
100
AcDbLine
 10
-18.89065204644896
 20
18.2919773088426
 30
0.0
 11
-18.89065204644896
 21
17.6669773088426
 31
0.0
  0
CIRCLE
  5
5C2
330
1F
100
AcDbEntity
  8
0
100
AcDbCircle
 10
-14.49188147380516
 20
17.6669773088426
 30
0.0
 40
0.2020193274896229
  0
CIRCLE
  5
5C3
330
1F
100
AcDbEntity
  8
0
100
AcDbCircle
 10
-18.51565204644896
 20
17.6669773088426
 30
0.0
 40
0.2020193274896229
  0
CIRCLE
  5
5C4
330
1F
100
AcDbEntity
  8
0
100
AcDbCircle
 10
-17.49871690594244
 20
17.90741016508912
 30
0.0
 40
0.0940791681753126
  0
CIRCLE
  5
5C5
330
1F
100
AcDbEntity
  8
0
100
AcDbCircle
 10
-15.50881661431168
 20
17.90741016508912
 30
0.0
 40
0.0940791681753126
  0
LINE
  5
5C6
330
1F
100
AcDbEntity
  8
0
100
AcDbLine
 10
141.6204522245051
 20
18.2919773088426
 30
0.0
 11
136.8466816518612
 21
18.2919773088426
 31
0.0
  0
LINE
  5
5C7
330
1F
100
AcDbEntity
  8
0
100
AcDbLine
 10
141.245452224505
 20
17.2919773088426
 30
0.0
 11
137.2216816518612
 21
17.2919773088426
 31
0.0
  0
ARC
  5
5C8
330
1F
100
AcDbEntity
  8
0
100
AcDbCircle
 10
141.245452224505
 20
17.6669773088426
 30
0.0
 40
0.375
100
AcDbArc
 50
270.0
 51
0.0
  0
ARC
  5
5C9
330
1F
100
AcDbEntity
  8
0
100
AcDbCircle
 10
137.2216816518612
 20
17.6669773088426
 30
0.0
 40
0.375
100
AcDbArc
 50
180.0
 51
270.0
  0
TEXT
  5
5CA
330
1F
100
AcDbEntity
  8
0
100
AcDbText
 10
137.6629827914267
 20
18.76710106613996
 30
0.0
 40
0.4775366748046875
  1
ELIASON
 50
0.0000000000016284
  7
Text
100
AcDbText
  0
LINE
  5
5CB
330
1F
100
AcDbEntity
  8
0
100
AcDbLine
 10
136.8466816518612
 20
18.2919773088426
 30
0.0
 11
136.8466816518612
 21
20.14439993699852
 31
0.0
  0
LINE
  5
5CC
330
1F
100
AcDbEntity
  8
0
100
AcDbLine
 10
142.9363034118401
 20
20.45689993699852
 30
0.0
 11
142.9363034118401
 21
16.89439993699852
 31
0.0
  0
LINE
  5
5CD
330
1F
100
AcDbEntity
  8
0
100
AcDbLine
 10
141.620452224505
 20
20.14439993699852
 30
0.0
 11
141.620452224505
 21
18.2919773088426
 31
0.0
  0
LINE
  5
5CE
330
1F
100
AcDbEntity
  8
0
100
AcDbLine
 10
143.1238034118401
 20
16.89439993699852
 30
0.0
 11
142.9363034118401
 21
16.89439993699852
 31
0.0
  0
LINE
  5
5CF
330
1F
100
AcDbEntity
  8
0
100
AcDbLine
 10
142.6863034118401
 20
20.70689993699852
 30
0.0
 11
137.8738034118401
 21
20.70689993699852
 31
0.0
  0
LINE
  5
5D0
330
1F
100
AcDbEntity
  8
0
100
AcDbLine
 10
142.6863034118401
 20
20.89439993699853
 30
0.0
 11
137.8738034118401
 21
20.89439993699853
 31
0.0
  0
LINE
  5
5D1
330
1F
100
AcDbEntity
  8
0
100
AcDbLine
 10
137.8738034118401
 20
20.70689993699852
 30
0.0
 11
137.8738034118401
 21
20.89439993699853
 31
0.0
  0
LINE
  5
5D2
330
1F
100
AcDbEntity
  8
0
100
AcDbLine
 10
138.9363034118401
 20
20.70689993699852
 30
0.0
 11
138.9363034118401
 21
20.14439993699852
 31
0.0
  0
LINE
  5
5D3
330
1F
100
AcDbEntity
  8
0
100
AcDbLine
 10
139.8113034118401
 20
20.70689993699852
 30
0.0
 11
139.8113034118401
 21
20.14439993699852
 31
0.0
  0
ARC
  5
5D4
330
1F
100
AcDbEntity
  8
0
100
AcDbCircle
 10
142.6863034118401
 20
20.45689993699852
 30
0.0
 40
0.25
100
AcDbArc
 50
0.0
 51
90.0
  0
LINE
  5
5D5
330
1F
100
AcDbEntity
  8
0
100
AcDbLine
 10
143.1238034118401
 20
20.89439993699853
 30
0.0
 11
142.6863034118401
 21
20.89439993699853
 31
0.0
  0
ARC
  5
5D6
330
1F
100
AcDbEntity
  8
0
100
AcDbCircle
 10
142.6863034118401
 20
20.45689993699852
 30
0.0
 40
0.4375
100
AcDbArc
 50
0.0
 51
90.0
  0
LINE
  5
5D7
330
1F
100
AcDbEntity
  8
0
100
AcDbLine
 10
136.8466816518612
 20
18.2919773088426
 30
0.0
 11
136.8466816518612
 21
17.6669773088426
 31
0.0
  0
LINE
  5
5D8
330
1F
100
AcDbEntity
  8
0
100
AcDbLine
 10
141.620452224505
 20
18.2919773088426
 30
0.0
 11
141.620452224505
 21
17.6669773088426
 31
0.0
  0
CIRCLE
  5
5D9
330
1F
100
AcDbEntity
  8
0
100
AcDbCircle
 10
137.2216816518612
 20
17.6669773088426
 30
0.0
 40
0.2020193274896229
  0
CIRCLE
  5
5DA
330
1F
100
AcDbEntity
  8
0
100
AcDbCircle
 10
141.245452224505
 20
17.6669773088426
 30
0.0
 40
0.2020193274896229
  0
CIRCLE
  5
5DB
330
1F
100
AcDbEntity
  8
0
100
AcDbCircle
 10
140.2285170839985
 20
17.90741016508912
 30
0.0
 40
0.0940791681753126
  0
CIRCLE
  5
5DC
330
1F
100
AcDbEntity
  8
0
100
AcDbCircle
 10
138.2386167923677
 20
17.90741016508912
 30
0.0
 40
0.0940791681753126
  0
INSERT
  5
5DD
330
1F
100
AcDbEntity
  8
0
100
AcDbBlockReference
  2
9 X 14 WINDOW
 10
15.98099676621592
 20
-62.35560006300147
 30
0.0
  0
INSERT
  5
5DE
330
1F
100
AcDbEntity
  8
0
100
AcDbBlockReference
  2
9 X 14 WINDOW
 10
15.23099676621592
 20
-62.35560006300147
 30
0.0
 41
-1.0
  0
INSERT
  5
5DF
330
1F
100
AcDbEntity
  8
0
100
AcDbBlockReference
  2
9 X 14 WINDOW
 10
107.4988034118401
 20
-62.35560006300147
 30
0.0
  0
LINE
  5
5E0
330
1F
100
AcDbEntity
  8
0
100
AcDbLine
 10
140.1238034118401
 20
-63.10560006300147
 30
0.0
 11
140.1238034118401
 21
-54.10560006300136
 31
0.0
  0
LINE
  5
5E1
330
1F
100
AcDbEntity
  8
0
100
AcDbLine
 10
140.1238034118401
 20
-54.10560006300136
 30
0.0
 11
142.7337653928947
 21
-54.10560006300148
 31
0.0
  0
LINE
  5
5E2
330
1F
100
AcDbEntity
  8
0
100
AcDbLine
 10
142.9566442608634
 20
-53.88272119503279
 30
0.0
 11
142.9566442608635
 21
-52.48972827022805
 31
0.0
  0
LINE
  5
5E3
330
1F
100
AcDbEntity
  8
0
100
AcDbLine
 10
140.1706584112542
 20
-54.10560006300148
 30
0.0
 11
142.7337653928947
 21
-54.10560006300148
 31
0.0
  0
LINE
  5
5E4
330
1F
100
AcDbEntity
  8
0
100
AcDbLine
 10
141.5079316190666
 20
-54.10560006300148
 30
0.0
 11
141.5079316190666
 21
-53.35560006300148
 31
0.0
  0
LINE
  5
5E5
330
1F
100
AcDbEntity
  8
0
100
AcDbLine
 10
140.8829316190667
 20
-54.10560006300148
 30
0.0
 11
140.8829316190667
 21
-53.35560006300148
 31
0.0
  0
ARC
  5
5E6
330
1F
100
AcDbEntity
  8
0
100
AcDbCircle
 10
142.7337653928947
 20
-53.88272119503279
 30
0.0
 40
0.22287886796875
100
AcDbArc
 50
270.0
 51
0.0
  0
LINE
  5
5E7
330
1F
100
AcDbEntity
  8
0
100
AcDbLine
 10
142.9566442608634
 20
-52.48972827022794
 30
0.0
 11
143.1238034118401
 21
-52.48972827022794
 31
0.0
  0
LINE
  5
5E8
330
1F
100
AcDbEntity
  8
0
100
AcDbLine
 10
140.1238034118401
 20
-63.10560006300147
 30
0.0
 11
143.1238034118401
 21
-63.10560006300147
 31
0.0
  0
LINE
  5
5E9
330
1F
100
AcDbEntity
  8
0
100
AcDbLine
 10
143.1238034118401
 20
-63.10560006300147
 30
0.0
 11
143.1238034118401
 21
-52.48972827022794
 31
0.0
  0
LINE
  5
5EA
330
1F
100
AcDbEntity
  8
0
100
AcDbLine
 10
139.7488034118401
 20
-62.35560006300147
 30
0.0
 11
139.7488034118401
 21
-53.35560006300148
 31
0.0
  0
LINE
  5
5EB
330
1F
100
AcDbEntity
  8
0
100
AcDbLine
 10
140.1706584112541
 20
-54.10560006300148
 30
0.0
 11
142.7337653928947
 21
-54.10560006300148
 31
0.0
  0
CIRCLE
  5
5EC
330
1F
100
AcDbEntity
  8
0
100
AcDbCircle
 10
139.4463020903557
 20
-52.82404657218115
 30
0.0
 40
0.1671591509765625
  0
CIRCLE
  5
5ED
330
1F
100
AcDbEntity
  8
0
100
AcDbCircle
 10
139.4463020903557
 20
-51.93253110030616
 30
0.0
 40
0.1671591509765625
  0
LINE
  5
5EE
330
1F
100
AcDbEntity
  8
0
100
AcDbLine
 10
141.7308104870355
 20
-51.48677336436867
 30
0.0
 11
139.0562640714105
 21
-51.48677336436867
 31
0.0
  0
LINE
  5
5EF
330
1F
100
AcDbEntity
  8
0
100
AcDbLine
 10
139.0562640714105
 20
-51.48677336436867
 30
0.0
 11
139.0562640714105
 21
-53.35560006300148
 31
0.0
  0
LINE
  5
5F0
330
1F
100
AcDbEntity
  8
0
100
AcDbLine
 10
141.7308104870355
 20
-53.35560006300148
 30
0.0
 11
141.7308104870355
 21
-51.48677336436867
 31
0.0
  0
CIRCLE
  5
5F1
330
1F
100
AcDbEntity
  8
0
100
AcDbCircle
 10
140.2931761973818
 20
-51.93253110030616
 30
0.0
 40
0.1671591509765625
  0
CIRCLE
  5
5F2
330
1F
100
AcDbEntity
  8
0
100
AcDbCircle
 10
140.2931761973818
 20
-52.82404657218115
 30
0.0
 40
0.1671591509765625
  0
LINE
  5
5F3
330
1F
100
AcDbEntity
  8
0
100
AcDbLine
 10
140.8052711073782
 20
-51.48677336436867
 30
0.0
 11
140.8052711073782
 21
-53.35560006300148
 31
0.0
  0
LINE
  5
5F4
330
1F
100
AcDbEntity
  8
0
100
AcDbLine
 10
139.0562640714105
 20
-53.35560006300148
 30
0.0
 11
141.7308104870355
 21
-53.35560006300148
 31
0.0
  0
LINE
  5
5F5
330
1F
100
AcDbEntity
  8
0
100
AcDbLine
 10
141.7308104870355
 20
-53.35560006300148
 30
0.0
 11
142.7488034118401
 21
-53.35560006300148
 31
0.0
  0
LINE
  5
5F6
330
1F
100
AcDbEntity
  8
0
100
AcDbLine
 10
48.60599676621593
 20
-63.10560006300147
 30
0.0
 11
48.60599676621593
 21
-54.10560006300136
 31
0.0
  0
LINE
  5
5F7
330
1F
100
AcDbEntity
  8
0
100
AcDbLine
 10
48.60599676621593
 20
-54.10560006300136
 30
0.0
 11
51.21595874727058
 21
-54.10560006300148
 31
0.0
  0
LINE
  5
5F8
330
1F
100
AcDbEntity
  8
0
100
AcDbLine
 10
51.43883761523927
 20
-53.88272119503279
 30
0.0
 11
51.43883761523937
 21
-52.48972827022805
 31
0.0
  0
LINE
  5
5F9
330
1F
100
AcDbEntity
  8
0
100
AcDbLine
 10
48.65285176563003
 20
-54.10560006300148
 30
0.0
 11
51.21595874727058
 21
-54.10560006300148
 31
0.0
  0
LINE
  5
5FA
330
1F
100
AcDbEntity
  8
0
100
AcDbLine
 10
49.9901249734425
 20
-54.10560006300148
 30
0.0
 11
49.9901249734425
 21
-53.35560006300148
 31
0.0
  0
LINE
  5
5FB
330
1F
100
AcDbEntity
  8
0
100
AcDbLine
 10
49.3651249734425
 20
-54.10560006300148
 30
0.0
 11
49.3651249734425
 21
-53.35560006300148
 31
0.0
  0
ARC
  5
5FC
330
1F
100
AcDbEntity
  8
0
100
AcDbCircle
 10
51.21595874727058
 20
-53.88272119503279
 30
0.0
 40
0.22287886796875
100
AcDbArc
 50
270.0
 51
0.0
  0
LINE
  5
5FD
330
1F
100
AcDbEntity
  8
0
100
AcDbLine
 10
51.43883761523927
 20
-52.48972827022794
 30
0.0
 11
51.60599676621592
 21
-52.48972827022794
 31
0.0
  0
LINE
  5
5FE
330
1F
100
AcDbEntity
  8
0
100
AcDbLine
 10
48.60599676621593
 20
-63.10560006300147
 30
0.0
 11
51.60599676621592
 21
-63.10560006300147
 31
0.0
  0
LINE
  5
5FF
330
1F
100
AcDbEntity
  8
0
100
AcDbLine
 10
51.60599676621592
 20
-63.10560006300147
 30
0.0
 11
51.60599676621592
 21
-52.48972827022794
 31
0.0
  0
LINE
  5
600
330
1F
100
AcDbEntity
  8
0
100
AcDbLine
 10
48.23099676621592
 20
-62.35560006300147
 30
0.0
 11
48.23099676621592
 21
-53.35560006300148
 31
0.0
  0
LINE
  5
601
330
1F
100
AcDbEntity
  8
0
100
AcDbLine
 10
48.65285176562991
 20
-54.10560006300148
 30
0.0
 11
51.21595874727058
 21
-54.10560006300148
 31
0.0
  0
CIRCLE
  5
602
330
1F
100
AcDbEntity
  8
0
100
AcDbCircle
 10
47.92849544473148
 20
-52.82404657218115
 30
0.0
 40
0.1671591509765625
  0
CIRCLE
  5
603
330
1F
100
AcDbEntity
  8
0
100
AcDbCircle
 10
47.92849544473148
 20
-51.93253110030616
 30
0.0
 40
0.1671591509765625
  0
LINE
  5
604
330
1F
100
AcDbEntity
  8
0
100
AcDbLine
 10
50.21300384141131
 20
-51.48677336436867
 30
0.0
 11
47.53845742578636
 21
-51.48677336436867
 31
0.0
  0
LINE
  5
605
330
1F
100
AcDbEntity
  8
0
100
AcDbLine
 10
47.53845742578636
 20
-51.48677336436867
 30
0.0
 11
47.53845742578636
 21
-53.35560006300148
 31
0.0
  0
LINE
  5
606
330
1F
100
AcDbEntity
  8
0
100
AcDbLine
 10
50.21300384141131
 20
-53.35560006300148
 30
0.0
 11
50.21300384141131
 21
-51.48677336436867
 31
0.0
  0
CIRCLE
  5
607
330
1F
100
AcDbEntity
  8
0
100
AcDbCircle
 10
48.77536955175759
 20
-51.93253110030616
 30
0.0
 40
0.1671591509765625
  0
CIRCLE
  5
608
330
1F
100
AcDbEntity
  8
0
100
AcDbCircle
 10
48.77536955175759
 20
-52.82404657218115
 30
0.0
 40
0.1671591509765625
  0
LINE
  5
609
330
1F
100
AcDbEntity
  8
0
100
AcDbLine
 10
49.28746446175404
 20
-51.48677336436867
 30
0.0
 11
49.28746446175404
 21
-53.35560006300148
 31
0.0
  0
LINE
  5
60A
330
1F
100
AcDbEntity
  8
0
100
AcDbLine
 10
47.53845742578636
 20
-53.35560006300148
 30
0.0
 11
50.21300384141131
 21
-53.35560006300148
 31
0.0
  0
LINE
  5
60B
330
1F
100
AcDbEntity
  8
0
100
AcDbLine
 10
50.21300384141131
 20
-53.35560006300148
 30
0.0
 11
51.23099676621592
 21
-53.35560006300148
 31
0.0
  0
LINE
  5
60C
330
1F
100
AcDbEntity
  8
0
100
AcDbLine
 10
-17.39400323378407
 20
-63.10560006300147
 30
0.0
 11
-17.39400323378407
 21
-54.10560006300136
 31
0.0
  0
LINE
  5
60D
330
1F
100
AcDbEntity
  8
0
100
AcDbLine
 10
-17.39400323378407
 20
-54.10560006300136
 30
0.0
 11
-20.00396521483873
 21
-54.10560006300148
 31
0.0
  0
LINE
  5
60E
330
1F
100
AcDbEntity
  8
0
100
AcDbLine
 10
-20.22684408280742
 20
-53.88272119503279
 30
0.0
 11
-20.22684408280753
 21
-52.48972827022805
 31
0.0
  0
LINE
  5
60F
330
1F
100
AcDbEntity
  8
0
100
AcDbLine
 10
-17.44085823319818
 20
-54.10560006300148
 30
0.0
 11
-20.00396521483873
 21
-54.10560006300148
 31
0.0
  0
LINE
  5
610
330
1F
100
AcDbEntity
  8
0
100
AcDbLine
 10
-18.77813144101066
 20
-54.10560006300148
 30
0.0
 11
-18.77813144101066
 21
-53.35560006300148
 31
0.0
  0
LINE
  5
611
330
1F
100
AcDbEntity
  8
0
100
AcDbLine
 10
-18.15313144101066
 20
-54.10560006300148
 30
0.0
 11
-18.15313144101066
 21
-53.35560006300148
 31
0.0
  0
ARC
  5
612
330
1F
100
AcDbEntity
  8
0
100
AcDbCircle
 10
-20.00396521483873
 20
-53.88272119503279
 30
0.0
 40
0.2228788679687499
100
AcDbArc
 50
180.0
 51
270.0
  0
LINE
  5
613
330
1F
100
AcDbEntity
  8
0
100
AcDbLine
 10
-20.22684408280742
 20
-52.48972827022794
 30
0.0
 11
-20.39400323378408
 21
-52.48972827022794
 31
0.0
  0
LINE
  5
614
330
1F
100
AcDbEntity
  8
0
100
AcDbLine
 10
-17.39400323378407
 20
-63.10560006300147
 30
0.0
 11
-20.39400323378408
 21
-63.10560006300147
 31
0.0
  0
LINE
  5
615
330
1F
100
AcDbEntity
  8
0
100
AcDbLine
 10
-20.39400323378408
 20
-63.10560006300147
 30
0.0
 11
-20.39400323378408
 21
-52.48972827022794
 31
0.0
  0
LINE
  5
616
330
1F
100
AcDbEntity
  8
0
100
AcDbLine
 10
-17.01900323378407
 20
-62.35560006300147
 30
0.0
 11
-17.01900323378407
 21
-53.35560006300148
 31
0.0
  0
LINE
  5
617
330
1F
100
AcDbEntity
  8
0
100
AcDbLine
 10
-17.44085823319807
 20
-54.10560006300148
 30
0.0
 11
-20.00396521483873
 21
-54.10560006300148
 31
0.0
  0
CIRCLE
  5
618
330
1F
100
AcDbEntity
  8
0
100
AcDbCircle
 10
-16.71650191229963
 20
-52.82404657218115
 30
0.0
 40
0.1671591509765625
  0
CIRCLE
  5
619
330
1F
100
AcDbEntity
  8
0
100
AcDbCircle
 10
-16.71650191229963
 20
-51.93253110030616
 30
0.0
 40
0.1671591509765625
  0
LINE
  5
61A
330
1F
100
AcDbEntity
  8
0
100
AcDbLine
 10
-19.00101030897946
 20
-51.48677336436867
 30
0.0
 11
-16.32646389335451
 21
-51.48677336436867
 31
0.0
  0
LINE
  5
61B
330
1F
100
AcDbEntity
  8
0
100
AcDbLine
 10
-16.32646389335451
 20
-51.48677336436867
 30
0.0
 11
-16.32646389335451
 21
-53.35560006300148
 31
0.0
  0
LINE
  5
61C
330
1F
100
AcDbEntity
  8
0
100
AcDbLine
 10
-19.00101030897946
 20
-53.35560006300148
 30
0.0
 11
-19.00101030897946
 21
-51.48677336436867
 31
0.0
  0
CIRCLE
  5
61D
330
1F
100
AcDbEntity
  8
0
100
AcDbCircle
 10
-17.56337601932574
 20
-51.93253110030616
 30
0.0
 40
0.1671591509765625
  0
CIRCLE
  5
61E
330
1F
100
AcDbEntity
  8
0
100
AcDbCircle
 10
-17.56337601932574
 20
-52.82404657218115
 30
0.0
 40
0.1671591509765625
  0
LINE
  5
61F
330
1F
100
AcDbEntity
  8
0
100
AcDbLine
 10
-18.07547092932219
 20
-51.48677336436867
 30
0.0
 11
-18.07547092932219
 21
-53.35560006300148
 31
0.0
  0
LINE
  5
620
330
1F
100
AcDbEntity
  8
0
100
AcDbLine
 10
-16.32646389335451
 20
-53.35560006300148
 30
0.0
 11
-19.00101030897946
 21
-53.35560006300148
 31
0.0
  0
LINE
  5
621
330
1F
100
AcDbEntity
  8
0
100
AcDbLine
 10
-19.00101030897946
 20
-53.35560006300148
 30
0.0
 11
-20.01900323378408
 21
-53.35560006300148
 31
0.0
  0
LINE
  5
622
330
1F
100
AcDbEntity
  8
0
100
AcDbLine
 10
3.458439568054075
 20
-7.517055820364362
 30
0.0
 11
4.008870871152851
 21
-8.067487123463138
 31
0.0
  0
LINE
  5
623
330
1F
100
AcDbEntity
  8
0
100
AcDbLine
 10
3.035582424162896
 20
-6.74064528587985
 30
0.0
 11
4.675916658492781
 21
-8.380979520209734
 31
0.0
  0
LINE
  5
624
330
1F
100
AcDbEntity
  8
0
100
AcDbLine
 10
3.811992958647351
 20
-7.163502429771142
 30
0.0
 11
4.362424261746127
 21
-7.713933732869918
 31
0.0
  0
LINE
  5
625
330
1F
100
AcDbEntity
  8
0
100
AcDbLine
 10
8.434316869751626
 20
1.409198108911823
 30
0.0
 11
8.984748172850402
 21
0.8587668058130475
 31
0.0
  0
LINE
  5
626
330
1F
100
AcDbEntity
  8
0
100
AcDbLine
 10
8.011459725860447
 20
2.185608643396335
 30
0.0
 11
9.651793960190332
 21
0.545274409066451
 31
0.0
  0
LINE
  5
627
330
1F
100
AcDbEntity
  8
0
100
AcDbLine
 10
8.787870260344959
 20
1.762751499505156
 30
0.0
 11
9.338301563443735
 21
1.212320196406381
 31
0.0
  0
LINE
  5
628
330
1F
100
AcDbEntity
  8
0
100
AcDbLine
 10
21.70843956805407
 20
-7.517055820364362
 30
0.0
 11
22.25887087115285
 21
-8.067487123463138
 31
0.0
  0
LINE
  5
629
330
1F
100
AcDbEntity
  8
0
100
AcDbLine
 10
21.2855824241629
 20
-6.74064528587985
 30
0.0
 11
22.92591665849278
 21
-8.380979520209734
 31
0.0
  0
LINE
  5
62A
330
1F
100
AcDbEntity
  8
0
100
AcDbLine
 10
22.06199295864735
 20
-7.163502429771142
 30
0.0
 11
22.61242426174613
 21
-7.713933732869918
 31
0.0
  0
LINE
  5
62B
330
1F
100
AcDbEntity
  8
0
100
AcDbLine
 10
26.68431686975163
 20
1.409198108911823
 30
0.0
 11
27.2347481728504
 21
0.8587668058130475
 31
0.0
  0
LINE
  5
62C
330
1F
100
AcDbEntity
  8
0
100
AcDbLine
 10
26.26145972586045
 20
2.185608643396335
 30
0.0
 11
27.90179396019033
 21
0.545274409066451
 31
0.0
  0
LINE
  5
62D
330
1F
100
AcDbEntity
  8
0
100
AcDbLine
 10
27.03787026034496
 20
1.762751499505156
 30
0.0
 11
27.58830156344374
 21
1.212320196406381
 31
0.0
  0
LINE
  5
62E
330
1F
100
AcDbEntity
  8
0
100
AcDbLine
 10
113.2262462136782
 20
-7.517055820364362
 30
0.0
 11
113.776677516777
 21
-8.067487123463138
 31
0.0
  0
LINE
  5
62F
330
1F
100
AcDbEntity
  8
0
100
AcDbLine
 10
112.8033890697871
 20
-6.74064528587985
 30
0.0
 11
114.443723304117
 21
-8.380979520209734
 31
0.0
  0
LINE
  5
630
330
1F
100
AcDbEntity
  8
0
100
AcDbLine
 10
113.5797996042715
 20
-7.163502429771142
 30
0.0
 11
114.1302309073703
 21
-7.713933732869918
 31
0.0
  0
LINE
  5
631
330
1F
100
AcDbEntity
  8
0
100
AcDbLine
 10
118.2021235153758
 20
1.409198108911823
 30
0.0
 11
118.7525548184746
 21
0.8587668058130475
 31
0.0
  0
LINE
  5
632
330
1F
100
AcDbEntity
  8
0
100
AcDbLine
 10
117.7792663714846
 20
2.185608643396335
 30
0.0
 11
119.4196006058145
 21
0.545274409066451
 31
0.0
  0
LINE
  5
633
330
1F
100
AcDbEntity
  8
0
100
AcDbLine
 10
118.5556769059691
 20
1.762751499505156
 30
0.0
 11
119.1061082090679
 21
1.212320196406381
 31
0.0
  0
DIMENSION
  5
634
330
1F
100
AcDbEntity
  8
0
100
AcDbDimension
  2
*D5
 10
-26.96268360089016
 20
-3.355600063001467
 30
0.0
 11
-26.96268360089016
 21
-31.09560688428394
 31
0.0
 70
   160
 71
     5
 42
59.75000000000001
  3
Standard
100
AcDbAlignedDimension
 13
-20.39400323378408
 23
-63.10560006300147
 33
0.0
 14
1.980996766215923
 24
-3.355600063001475
 34
0.0
 50
90.0
100
AcDbRotatedDimension
  0
DIMENSION
  5
635
330
1F
100
AcDbEntity
  8
0
100
AcDbDimension
  2
*D6
 10
100.555123044734
 20
-3.355600063001471
 30
0.0
 11
100.555123044734
 21
-31.09560688428394
 31
0.0
 70
   160
 71
     5
 42
59.75
  3
Standard
100
AcDbAlignedDimension
 13
107.1238034118401
 23
-63.10560006300147
 33
0.0
 14
111.7488034118401
 24
-3.355600063001475
 34
0.0
 50
90.0
100
AcDbRotatedDimension
  0
ENDSEC
  0
SECTION
  2
OBJECTS
  0
DICTIONARY
  5
C
330
0
100
AcDbDictionary
281
     1
  3
ACAD_COLOR
350
73
  3
ACAD_GROUP
350
D
  3
ACAD_LAYOUT
350
1A
  3
ACAD_MATERIAL
350
72
  3
ACAD_MLINESTYLE
350
17
  3
ACAD_PLOTSETTINGS
350
19
  3
ACAD_PLOTSTYLENAME
350
E
  3
ACAD_TABLESTYLE
350
86
  3
ACDBHEADERROUNDTRIPXREC
350
672
  3
AcDbVariableDictionary
350
66
  0
DICTIONARY
  5
73
102
{ACAD_REACTORS
330
C
102
}
330
C
100
AcDbDictionary
281
     1
  0
DICTIONARY
  5
D
102
{ACAD_REACTORS
330
C
102
}
330
C
100
AcDbDictionary
281
     1
  0
DICTIONARY
  5
1A
102
{ACAD_REACTORS
330
C
102
}
330
C
100
AcDbDictionary
281
     1
  3
Layout1
350
59
  3
Layout2
350
5E
  3
Model
350
22
  0
DICTIONARY
  5
72
102
{ACAD_REACTORS
330
C
102
}
330
C
100
AcDbDictionary
281
     1
  0
DICTIONARY
  5
17
102
{ACAD_REACTORS
330
C
102
}
330
C
100
AcDbDictionary
281
     1
  3
Standard
350
18
  0
DICTIONARY
  5
19
102
{ACAD_REACTORS
330
C
102
}
330
C
100
AcDbDictionary
281
     1
  0
ACDBDICTIONARYWDFLT
  5
E
102
{ACAD_REACTORS
330
C
102
}
330
C
100
AcDbDictionary
281
     1
  3
Normal
350
F
100
AcDbDictionaryWithDefault
340
F
  0
DICTIONARY
  5
86
102
{ACAD_REACTORS
330
C
102
}
330
C
100
AcDbDictionary
281
     1
  3
Standard
350
87
  0
DICTIONARY
  5
672
102
{ACAD_REACTORS
330
C
102
}
330
C
100
AcDbDictionary
281
     1
  0
DICTIONARY
  5
66
102
{ACAD_REACTORS
330
C
102
}
330
C
100
AcDbDictionary
281
     1
  3
CTABLESTYLE
350
47D
  3
DIMASSOC
350
67
  3
HIDETEXT
350
6B
  3
PROJECTNAME
350
66C
  0
LAYOUT
  5
59
102
{ACAD_XDICTIONARY
360
675
102
}
102
{ACAD_REACTORS
330
1A
102
}
330
1A
100
AcDbPlotSettings
  1

  2
None
  4

  6

 40
0.0
 41
0.0
 42
0.0
 43
0.0
 44
0.0
 45
0.0
 46
0.0
 47
0.0
 48
0.0
 49
0.0
140
0.0
141
0.0
142
1.0
143
1.0
 70
   688
 72
     0
 73
     0
 74
     5
  7

 75
    16
147
1.0
148
0.0
149
0.0
100
AcDbLayout
  1
Layout1
 70
     1
 71
     1
 10
0.0
 20
0.0
 11
12.0
 21
9.0
 12
0.0
 22
0.0
 32
0.0
 14
0.0
 24
0.0
 34
0.0
 15
0.0
 25
0.0
 35
0.0
146
0.0
 13
0.0
 23
0.0
 33
0.0
 16
1.0
 26
0.0
 36
0.0
 17
0.0
 27
1.0
 37
0.0
 76
     0
330
58
  0
LAYOUT
  5
5E
102
{ACAD_XDICTIONARY
360
677
102
}
102
{ACAD_REACTORS
330
1A
102
}
330
1A
100
AcDbPlotSettings
  1

  2
None
  4

  6

 40
0.0
 41
0.0
 42
0.0
 43
0.0
 44
0.0
 45
0.0
 46
0.0
 47
0.0
 48
0.0
 49
0.0
140
0.0
141
0.0
142
1.0
143
1.0
 70
   688
 72
     0
 73
     0
 74
     5
  7

 75
    16
147
1.0
148
0.0
149
0.0
100
AcDbLayout
  1
Layout2
 70
     1
 71
     2
 10
0.0
 20
0.0
 11
12.0
 21
9.0
 12
0.0
 22
0.0
 32
0.0
 14
0.0
 24
0.0
 34
0.0
 15
0.0
 25
0.0
 35
0.0
146
0.0
 13
0.0
 23
0.0
 33
0.0
 16
1.0
 26
0.0
 36
0.0
 17
0.0
 27
1.0
 37
0.0
 76
     0
330
5D
  0
LAYOUT
  5
22
102
{ACAD_XDICTIONARY
360
673
102
}
102
{ACAD_REACTORS
330
1A
102
}
330
1A
100
AcDbPlotSettings
  1

  2
none_device
  4
ANSI_A_(8.50_x_11.00_Inches)
  6

 40
6.349999904632568
 41
19.04999923706055
 42
6.350006103515625
 43
19.04998779296875
 44
215.8999938964844
 45
279.3999938964844
 46
0.0
 47
0.0
 48
0.0
 49
0.0
140
0.0
141
0.0
142
1.0
143
2.584895464708373
 70
 11952
 72
     0
 73
     1
 74
     0
  7

 75
     0
147
0.3868628397755418
148
0.0
149
0.0
100
AcDbLayout
  1
Model
 70
     1
 71
     0
 10
0.0
 20
0.0
 11
12.0
 21
9.0
 12
0.0
 22
0.0
 32
0.0
 14
0.0
 24
0.0
 34
0.0
 15
0.0
 25
0.0
 35
0.0
146
0.0
 13
0.0
 23
0.0
 33
0.0
 16
1.0
 26
0.0
 36
0.0
 17
0.0
 27
1.0
 37
0.0
 76
     0
330
1F
  0
MLINESTYLE
  5
18
102
{ACAD_REACTORS
330
17
102
}
330
17
100
AcDbMlineStyle
  2
STANDARD
 70
     0
  3

 62
   256
 51
90.0
 52
90.0
 71
     2
 49
0.5
 62
   256
  6
BYLAYER
 49
-0.5
 62
   256
  6
BYLAYER
  0
ACDBPLACEHOLDER
  5
F
102
{ACAD_REACTORS
330
E
102
}
330
E
  0
TABLESTYLE
  5
87
102
{ACAD_REACTORS
330
86
102
}
330
86
100
AcDbTableStyle
  3
Standard
 70
     0
 71
     0
 40
0.06
 41
0.06
280
     0
281
     0
  7
Standard
140
0.18
170
     2
 62
     0
 63
     7
283
     0
274
    -2
284
     1
 64
     0
275
    -2
285
     1
 65
     0
276
    -2
286
     1
 66
     0
277
    -2
287
     1
 67
     0
278
    -2
288
     1
 68
     0
279
    -2
289
     1
 69
     0
  7
Standard
140
0.25
170
     5
 62
     0
 63
     7
283
     0
274
    -2
284
     1
 64
     0
275
    -2
285
     1
 65
     0
276
    -2
286
     1
 66
     0
277
    -2
287
     1
 67
     0
278
    -2
288
     1
 68
     0
279
    -2
289
     1
 69
     0
  7
Standard
140
0.18
170
     5
 62
     0
 63
     7
283
     0
274
    -2
284
     1
 64
     0
275
    -2
285
     1
 65
     0
276
    -2
286
     1
 66
     0
277
    -2
287
     1
 67
     0
278
    -2
288
     1
 68
     0
279
    -2
289
     1
 69
     0
  0
DICTIONARYVAR
  5
47D
102
{ACAD_REACTORS
330
66
102
}
330
66
100
DictionaryVariables
280
     0
  1
STANDARD
  0
DICTIONARYVAR
  5
67
102
{ACAD_REACTORS
330
66
102
}
330
66
100
DictionaryVariables
280
     0
  1
2
  0
DICTIONARYVAR
  5
6B
102
{ACAD_REACTORS
330
66
102
}
330
66
100
DictionaryVariables
280
     0
  1
1
  0
DICTIONARYVAR
  5
66C
102
{ACAD_REACTORS
330
66
102
}
330
66
100
DictionaryVariables
280
     0
  1

  0
DICTIONARY
  5
675
330
59
100
AcDbDictionary
280
     1
281
     1
  3
ACAD_XREC_ROUNDTRIP
360
676
  0
DICTIONARY
  5
677
330
5E
100
AcDbDictionary
280
     1
281
     1
  3
ACAD_XREC_ROUNDTRIP
360
678
  0
DICTIONARY
  5
673
330
22
100
AcDbDictionary
280
     1
281
     1
  3
ACAD_XREC_ROUNDTRIP
360
674
  0
XRECORD
  5
676
102
{ACAD_REACTORS
330
675
102
}
330
675
100
AcDbXrecord
280
     1
102
SHADEPLOT
 70
     0
102
SHADEPLOTRESLEVEL
 70
     2
102
SHADEPLOTCUSTOMDPI
 70
   300
  0
XRECORD
  5
678
102
{ACAD_REACTORS
330
677
102
}
330
677
100
AcDbXrecord
280
     1
102
SHADEPLOT
 70
     0
102
SHADEPLOTRESLEVEL
 70
     2
102
SHADEPLOTCUSTOMDPI
 70
   300
  0
XRECORD
  5
674
102
{ACAD_REACTORS
330
673
102
}
330
673
100
AcDbXrecord
280
     1
102
SHADEPLOT
 70
     0
102
SHADEPLOTRESLEVEL
 70
     2
102
SHADEPLOTCUSTOMDPI
 70
   300
  0
ENDSEC
  0
EOF
